<svg xmlns="http://www.w3.org/2000/svg"><defs><font horiz-adv-x="512"><font-face ascent="480" descent="-32" units-per-em="512"/><missing-glyph horiz-adv-x="512"/><glyph d="" horiz-adv-x="256" unicode="&#x20;"/><glyph d="M485.428 422.286q0-10-12.286-22.285l-180.571-180.572v-219.428h91.428q7.428 0 12.857-5.428t5.428-12.857-5.428-12.857-12.857-5.428h-256q-7.428 0-12.857 5.428t-5.428 12.857 5.428 12.857 12.857 5.428h91.428v219.428l-180.571 180.572q-12.285 12.285-12.285 22.285 0 6.572 5.143 10.429t10.857 5 12.285 1.143h402.286q6.572 0 12.286-1.143t10.857-5 5.143-10.429z" unicode="&#xf000;"/><glyph d="M438.857 411.429v-320q0-14.286-9.714-25.428t-24.572-17.286-29.572-9.143-27.572-3-27.572 3-29.572 9.143-24.572 17.286-9.714 25.428 9.714 25.428 24.572 17.286 29.572 9.143 27.572 3q30 0 54.857-11.143v153.428l-219.429-67.714v-202.571q0-14.286-9.714-25.428t-24.571-17.286-29.572-9.143-27.572-3-27.572 3-29.572 9.143-24.572 17.286-9.714 25.428 9.714 25.428 24.572 17.286 29.572 9.143 27.572 3q30 0 54.857-11.143v276.286q0 8.857 5.428 16.143t14 10.143l237.714 73.143q3.428 1.143 8 1.143 11.428 0 19.428-8t8-19.429z" unicode="&#xf001;"/><glyph d="M329.143 237.714q0 52.857-37.572 90.428t-90.428 37.571-90.428-37.571-37.572-90.428 37.572-90.428 90.428-37.572 90.428 37.572 37.572 90.428zM475.428 0q0-14.857-10.857-25.714t-25.714-10.857q-15.428 0-25.714 10.857l-98 97.714q-51.143-35.428-114-35.428-40.857 0-78.143 15.857t-64.285 42.857-42.857 64.286-15.857 78.143 15.857 78.143 42.857 64.285 64.285 42.857 78.143 15.857 78.143-15.857 64.286-42.857 42.857-64.285 15.857-78.143q0-62.857-35.428-114l98-98q10.572-10.572 10.572-25.714z" horiz-adv-x="476" unicode="&#xf002;"/><glyph d="M475.428 45.714v219.428q-9.143-10.286-19.714-18.857-76.572-58.857-121.714-96.572-14.572-12.286-23.714-19.143t-24.714-13.857-29.286-7h-.571q-13.714 0-29.285 7t-24.714 13.857-23.714 19.143q-45.143 37.714-121.715 96.572-10.572 8.572-19.715 18.857v-219.428q0-3.714 2.715-6.428t6.428-2.714h420.572q3.714 0 6.428 2.714t2.714 6.428zM475.428 346v7t-.143 3.714-.857 3.572-1.572 2.572-2.572 2.143-4 .714h-420.572q-3.715 0-6.428-2.714t-2.715-6.429q0-48 42-81.143 55.143-43.428 114.571-90.572 1.714-1.428 10-8.428t13.143-10.714 12.714-9 14.429-7.857 12.286-2.572h.572q5.714 0 12.286 2.572t14.428 7.857 12.714 9 13.143 10.714 10 8.428q59.428 47.143 114.572 90.572 15.428 12.286 28.714 33t13.286 37.572zM512 356.572v-310.857q0-18.857-13.428-32.286t-32.286-13.428h-420.572q-18.857 0-32.285 13.428t-13.428 32.286v310.857q0 18.857 13.428 32.286t32.285 13.428h420.572q18.857 0 32.286-13.428t13.428-32.286z" unicode="&#xf003;"/><glyph d="M256 0q-7.428 0-12.572 5.143l-178.286 172q-2.857 2.286-7.857 7.428t-15.857 18.714-19.428 27.857-15.286 34.572-6.715 39.428q0 62.857 36.285 98.285t100.285 35.429q17.714 0 36.143-6.143t34.285-16.571 27.286-19.572 21.714-19.428q10.286 10.285 21.714 19.428t27.286 19.572 34.286 16.571 36.143 6.143q64 0 100.286-35.429t36.286-98.285q0-63.143-65.428-128.572l-178-171.428q-5.143-5.143-12.572-5.143z" unicode="&#xf004;"/><glyph d="M475.428 290.572q0-6.286-7.428-13.714l-103.714-101.143 24.572-142.857q.286-2 .286-5.714 0-6-3-10.143t-8.714-4.143q-5.428 0-11.428 3.428l-128.286 67.428-128.286-67.428q-6.285-3.428-11.428-3.428-6 0-9 4.143t-3 10.143q0 1.714.572 5.714l24.572 142.857-104 101.143q-7.143 7.714-7.143 13.714 0 10.572 16 13.143l143.428 20.857 64.286 130q5.428 11.714 14 11.714t14-11.714l64.286-130 143.429-20.857q16-2.572 16-13.143z" horiz-adv-x="476" unicode="&#xf005;"/><glyph d="M324.857 188.572l87.428 84.857-120.572 17.715-54 109.143-54-109.143-120.572-17.714 87.428-84.857-20.857-120.286 108 56.857 107.714-56.857zM475.428 290.572q0-6.286-7.428-13.714l-103.714-101.143 24.572-142.857q.286-2 .286-5.714 0-14.286-11.714-14.286-5.428 0-11.428 3.428l-128.286 67.428-128.286-67.428q-6.285-3.428-11.428-3.428-6 0-9 4.143t-3 10.143q0 1.714.572 5.714l24.572 142.857-104 101.143q-7.143 7.714-7.143 13.714 0 10.572 16 13.143l143.428 20.857 64.286 130q5.428 11.714 14 11.714t14-11.714l64.286-130 143.429-20.857q16-2.572 16-13.143z" horiz-adv-x="476" unicode="&#xf006;"/><glyph d="M402.286 74q0-34.286-20.857-54.143t-55.428-19.857h-249.714q-34.572 0-55.428 19.857t-20.857 54.143q0 15.143 1 29.572t4 31.143 7.572 31 12.285 27.857 17.715 23.143 24.428 15.286 31.857 5.714q2.572 0 12-6.143t21.285-13.714 30.857-13.714 38.143-6.143 38.143 6.143 30.857 13.714 21.286 13.714 12 6.143q17.428 0 31.857-5.714t24.428-15.285 17.714-23.143 12.286-27.857 7.572-31 4-31.143 1-29.572zM310.857 329.143q0-45.428-32.143-77.572t-77.572-32.143-77.572 32.143-32.143 77.572 32.143 77.571 77.572 32.143 77.572-32.143 32.143-77.571z" horiz-adv-x="403" unicode="&#xf007;"/><glyph d="M109.715 18.286v36.572q0 7.428-5.428 12.857t-12.857 5.428h-36.572q-7.428 0-12.857-5.428t-5.428-12.857v-36.572q0-7.428 5.428-12.857t12.857-5.428h36.572q7.428 0 12.857 5.428t5.428 12.857zM109.715 128v36.572q0 7.428-5.428 12.857t-12.857 5.428h-36.572q-7.428 0-12.857-5.428t-5.428-12.857v-36.572q0-7.428 5.428-12.857t12.857-5.428h36.572q7.428 0 12.857 5.428t5.428 12.857zM109.715 237.714v36.572q0 7.428-5.428 12.857t-12.857 5.429h-36.572q-7.428 0-12.857-5.428t-5.428-12.857v-36.571q0-7.428 5.428-12.857t12.857-5.428h36.572q7.428 0 12.857 5.428t5.428 12.857zM402.286 18.286v146.286q0 7.428-5.428 12.857t-12.857 5.428h-219.429q-7.429 0-12.857-5.428t-5.428-12.857v-146.286q0-7.428 5.428-12.857t12.857-5.428h219.429q7.428 0 12.857 5.428t5.428 12.857zM109.715 347.429v36.572q0 7.428-5.428 12.857t-12.857 5.428h-36.572q-7.428 0-12.857-5.428t-5.428-12.857v-36.572q0-7.428 5.428-12.857t12.857-5.428h36.572q7.428 0 12.857 5.428t5.428 12.857zM512 18.286v36.572q0 7.428-5.428 12.857t-12.857 5.428h-36.572q-7.428 0-12.857-5.428t-5.428-12.857v-36.572q0-7.428 5.428-12.857t12.857-5.428h36.572q7.428 0 12.857 5.428t5.428 12.857zM402.286 237.714v146.286q0 7.428-5.428 12.857t-12.857 5.428h-219.429q-7.429 0-12.857-5.428t-5.428-12.857v-146.286q0-7.428 5.428-12.857t12.857-5.428h219.429q7.428 0 12.857 5.428t5.428 12.857zM512 128v36.572q0 7.428-5.428 12.857t-12.857 5.428h-36.572q-7.428 0-12.857-5.428t-5.428-12.857v-36.572q0-7.428 5.428-12.857t12.857-5.428h36.572q7.428 0 12.857 5.428t5.428 12.857zM512 237.714v36.572q0 7.428-5.428 12.857t-12.857 5.429h-36.572q-7.428 0-12.857-5.428t-5.428-12.857v-36.571q0-7.428 5.428-12.857t12.857-5.428h36.572q7.428 0 12.857 5.428t5.428 12.857zM512 347.429v36.572q0 7.428-5.428 12.857t-12.857 5.428h-36.572q-7.428 0-12.857-5.428t-5.428-12.857v-36.572q0-7.428 5.428-12.857t12.857-5.428h36.572q7.428 0 12.857 5.428t5.428 12.857zM548.572 393.143v-384q0-18.857-13.428-32.286t-32.286-13.428h-457.143q-18.857 0-32.285 13.428t-13.428 32.286v384q0 18.857 13.428 32.286t32.285 13.428h457.143q18.857 0 32.286-13.428t13.428-32.286z" horiz-adv-x="549" unicode="&#xf008;"/><glyph d="M219.429 182.857v-109.714q0-14.857-10.857-25.714t-25.714-10.857h-146.286q-14.857 0-25.715 10.857t-10.857 25.714v109.714q0 14.857 10.857 25.714t25.715 10.857h146.286q14.857 0 25.714-10.857t10.857-25.714zM219.429 402.286v-109.714q0-14.857-10.857-25.714t-25.714-10.857h-146.286q-14.857 0-25.715 10.857t-10.857 25.714v109.714q0 14.857 10.857 25.714t25.715 10.857h146.286q14.857 0 25.714-10.857t10.857-25.714zM475.428 182.857v-109.714q0-14.857-10.857-25.714t-25.714-10.857h-146.286q-14.857 0-25.714 10.857t-10.857 25.714v109.714q0 14.857 10.857 25.714t25.714 10.857h146.286q14.857 0 25.714-10.857t10.857-25.714zM475.428 402.286v-109.714q0-14.857-10.857-25.714t-25.714-10.857h-146.286q-14.857 0-25.714 10.857t-10.857 25.714v109.714q0 14.857 10.857 25.714t25.714 10.857h146.286q14.857 0 25.714-10.857t10.857-25.714z" horiz-adv-x="476" unicode="&#xf009;"/><glyph d="M146.286 118.857v-54.857q0-11.428-8-19.428t-19.428-8h-91.428q-11.428 0-19.428 8t-8 19.428v54.857q0 11.428 8 19.428t19.428 8h91.428q11.428 0 19.428-8t8-19.428zM146.286 265.143v-54.857q0-11.428-8-19.428t-19.428-8h-91.428q-11.428 0-19.428 8t-8 19.428v54.857q0 11.429 8 19.429t19.428 8h91.428q11.428 0 19.428-8t8-19.428zM329.143 118.857v-54.857q0-11.428-8-19.428t-19.428-8h-91.428q-11.428 0-19.428 8t-8 19.428v54.857q0 11.428 8 19.428t19.428 8h91.428q11.428 0 19.428-8t8-19.428zM146.286 411.429v-54.857q0-11.428-8-19.428t-19.428-8h-91.428q-11.428 0-19.428 8t-8 19.428v54.857q0 11.428 8 19.428t19.428 8h91.428q11.428 0 19.428-8t8-19.428zM329.143 265.143v-54.857q0-11.428-8-19.428t-19.428-8h-91.428q-11.428 0-19.428 8t-8 19.428v54.857q0 11.429 8 19.429t19.428 8h91.428q11.428 0 19.428-8t8-19.428zM512 118.857v-54.857q0-11.428-8-19.428t-19.428-8h-91.428q-11.428 0-19.428 8t-8 19.428v54.857q0 11.428 8 19.428t19.428 8h91.428q11.428 0 19.428-8t8-19.428zM329.143 411.429v-54.857q0-11.428-8-19.428t-19.428-8h-91.428q-11.428 0-19.428 8t-8 19.428v54.857q0 11.428 8 19.428t19.428 8h91.428q11.428 0 19.428-8t8-19.428zM512 265.143v-54.857q0-11.428-8-19.428t-19.428-8h-91.428q-11.428 0-19.428 8t-8 19.428v54.857q0 11.429 8 19.429t19.428 8h91.428q11.428 0 19.428-8t8-19.428zM512 411.429v-54.857q0-11.428-8-19.428t-19.428-8h-91.428q-11.428 0-19.428 8t-8 19.428v54.857q0 11.428 8 19.428t19.428 8h91.428q11.428 0 19.428-8t8-19.428z" unicode="&#xf00a;"/><glyph d="M146.286 118.857v-54.857q0-11.428-8-19.428t-19.428-8h-91.428q-11.428 0-19.428 8t-8 19.428v54.857q0 11.428 8 19.428t19.428 8h91.428q11.428 0 19.428-8t8-19.428zM146.286 265.143v-54.857q0-11.428-8-19.428t-19.428-8h-91.428q-11.428 0-19.428 8t-8 19.428v54.857q0 11.429 8 19.429t19.428 8h91.428q11.428 0 19.428-8t8-19.428zM512 118.857v-54.857q0-11.428-8-19.428t-19.428-8h-274.286q-11.428 0-19.428 8t-8 19.428v54.857q0 11.428 8 19.428t19.428 8h274.286q11.428 0 19.428-8t8-19.428zM146.286 411.429v-54.857q0-11.428-8-19.428t-19.428-8h-91.428q-11.428 0-19.428 8t-8 19.428v54.857q0 11.428 8 19.428t19.428 8h91.428q11.428 0 19.428-8t8-19.428zM512 265.143v-54.857q0-11.428-8-19.428t-19.428-8h-274.286q-11.428 0-19.428 8t-8 19.428v54.857q0 11.429 8 19.429t19.428 8h274.286q11.428 0 19.428-8t8-19.428zM512 411.429v-54.857q0-11.428-8-19.428t-19.428-8h-274.286q-11.428 0-19.428 8t-8 19.428v54.857q0 11.428 8 19.428t19.428 8h274.286q11.428 0 19.428-8t8-19.428z" unicode="&#xf00b;"/><glyph d="M477.428 313.714q0-11.428-8-19.428l-245.714-245.714q-8-8-19.428-8t-19.428 8l-142.286 142.286q-8 8-8 19.428t8 19.428l38.857 38.857q8 8 19.428 8t19.428-8l84-84.285 187.429 187.714q8 8 19.428 8t19.428-8l38.857-38.857q8-8 8-19.428z" unicode="&#xf00c;"/><glyph d="M370.857 97.714q0-11.428-8-19.428l-38.857-38.857q-8-8-19.428-8t-19.428 8l-84 84-84-84q-8-8-19.428-8t-19.428 8l-38.857 38.857q-8 8-8 19.428t8 19.428l84 84-84 84q-8 8-8 19.428t8 19.428l38.857 38.857q8 8 19.428 8t19.428-8l84-84 84 84q8 8 19.428 8t19.428-8l38.857-38.857q8-8 8-19.428t-8-19.428l-84-84 84-84q8-8 8-19.428z" horiz-adv-x="403" unicode="&#xf00d;"/><glyph d="M292.572 246.857v-18.285q0-3.714-2.714-6.428t-6.428-2.714h-64v-64q0-3.714-2.714-6.428t-6.428-2.714h-18.286q-3.714 0-6.428 2.714t-2.714 6.428v64h-64q-3.715 0-6.428 2.714t-2.715 6.428v18.286q0 3.714 2.715 6.428t6.428 2.714h64v64q0 3.714 2.714 6.428t6.428 2.714h18.286q3.714 0 6.428-2.714t2.714-6.428v-64h64q3.714 0 6.428-2.714t2.714-6.428zM329.143 237.714q0 52.857-37.572 90.428t-90.428 37.571-90.428-37.571-37.572-90.428 37.572-90.428 90.428-37.572 90.428 37.572 37.572 90.428zM475.428 0q0-15.143-10.714-25.857t-25.857-10.715q-15.428 0-25.714 10.857l-98 97.714q-51.143-35.428-114-35.428-40.857 0-78.143 15.857t-64.285 42.857-42.857 64.286-15.857 78.143 15.857 78.143 42.857 64.285 64.285 42.857 78.143 15.857 78.143-15.857 64.286-42.857 42.857-64.285 15.857-78.143q0-62.857-35.428-114l98-98q10.572-10.572 10.572-25.714z" horiz-adv-x="476" unicode="&#xf00e;"/><glyph d="M292.572 246.857v-18.285q0-3.714-2.714-6.428t-6.428-2.714h-164.571q-3.715 0-6.428 2.714t-2.715 6.428v18.286q0 3.714 2.715 6.428t6.428 2.714h164.571q3.714 0 6.428-2.714t2.714-6.428zM329.143 237.714q0 52.857-37.572 90.428t-90.428 37.571-90.428-37.571-37.572-90.428 37.572-90.428 90.428-37.572 90.428 37.572 37.572 90.428zM475.428 0q0-15.143-10.714-25.857t-25.857-10.715q-15.428 0-25.714 10.857l-98 97.714q-51.143-35.428-114-35.428-40.857 0-78.143 15.857t-64.285 42.857-42.857 64.286-15.857 78.143 15.857 78.143 42.857 64.285 64.285 42.857 78.143 15.857 78.143-15.857 64.286-42.857 42.857-64.285 15.857-78.143q0-62.857-35.428-114l98-98q10.572-10.572 10.572-25.714z" horiz-adv-x="476" unicode="&#xf010;"/><glyph d="M438.857 219.429q0-44.572-17.428-85.143t-46.857-70-70-46.857-85.143-17.428-85.143 17.428-70 46.857-46.857 70-17.428 85.143q0 52 23 98t64.715 77.143q12.285 9.143 27.285 7.143t23.857-14.286q9.143-12 7-27t-14.143-24.143q-28-21.143-43.285-51.714t-15.285-65.143q0-29.714 11.572-56.714t31.285-46.714 46.715-31.286 56.714-11.572 56.714 11.572 46.714 31.286 31.286 46.714 11.572 56.714q0 34.572-15.286 65.143t-43.286 51.715q-12 9.143-14.143 24.143t7 27q8.857 12.286 24 14.286t27.143-7.143q41.714-31.143 64.714-77.143t23-98zM256 438.857v-182.857q0-14.857-10.857-25.714t-25.715-10.857-25.714 10.857-10.857 25.714v182.857q0 14.857 10.857 25.715t25.714 10.857 25.714-10.857 10.857-25.715z" unicode="&#xf011;"/><glyph d="M73.143 64v-54.857q0-4-2.572-6.572t-6.572-2.572h-54.857q-4 0-6.572 2.572t-2.571 6.572v54.857q0 4 2.571 6.572t6.572 2.572h54.857q4 0 6.572-2.572t2.572-6.572zM182.857 100.572v-91.428q0-4-2.571-6.572t-6.572-2.572h-54.857q-4 0-6.572 2.572t-2.572 6.572v91.428q0 4 2.572 6.572t6.572 2.572h54.857q4 0 6.572-2.572t2.571-6.572zM292.572 173.714v-164.571q0-4-2.572-6.572t-6.572-2.572h-54.857q-4 0-6.571 2.572t-2.571 6.572v164.572q0 4 2.571 6.572t6.572 2.572h54.857q4 0 6.572-2.572t2.572-6.572zM402.286 283.429v-274.286q0-4-2.572-6.572t-6.572-2.572h-54.857q-4 0-6.572 2.572t-2.572 6.572v274.286q0 4 2.572 6.572t6.572 2.571h54.857q4 0 6.572-2.571t2.572-6.572zM512 429.714v-420.571q0-4-2.572-6.572t-6.572-2.572h-54.857q-4 0-6.572 2.572t-2.572 6.572v420.572q0 4 2.572 6.571t6.572 2.572h54.857q4 0 6.572-2.572t2.572-6.571z" unicode="&#xf012;"/><glyph d="M292.572 219.429q0 30.286-21.428 51.714t-51.714 21.428-51.714-21.428-21.428-51.714 21.428-51.714 51.714-21.428 51.714 21.428 21.428 51.714zM438.857 250.572v-63.428q0-3.428-2.286-6.572t-5.714-3.714l-52.857-8q-5.428-15.428-11.143-26 10-14.286 30.572-39.428 2.857-3.428 2.857-7.143t-2.572-6.572q-7.714-10.572-28.286-30.857t-26.857-20.286q-3.428 0-7.428 2.572l-39.428 30.857q-12.572-6.572-26-10.857-4.572-38.857-8.286-53.143-2-8-10.286-8h-63.428q-4 0-7 2.428t-3.286 6.143l-8 52.572q-14 4.572-25.714 10.572l-40.285-30.572q-2.857-2.572-7.143-2.572-4 0-7.143 3.143-36 32.572-47.143 48-2 2.857-2 6.572 0 3.428 2.285 6.572 4.285 6 14.572 19t15.428 20.143q-7.715 14.286-11.715 28.286l-52.285 7.714q-3.715.572-6 3.572t-2.285 6.714v63.428q0 3.428 2.285 6.572t5.428 3.714l53.143 8q4 13.143 11.143 26.286-11.428 16.286-30.572 39.428-2.857 3.428-2.857 6.857 0 2.857 2.572 6.572 7.428 10.286 28.143 30.714t27 20.428q3.715 0 7.428-2.857l39.428-30.572q12.572 6.572 26 10.857 4.572 38.857 8.286 53.143 2 8 10.286 8h63.428q4 0 7-2.428t3.286-6.143l8-52.571q14-4.572 25.714-10.572l40.572 30.572q2.572 2.571 6.857 2.571 3.714 0 7.143-2.857 36.857-34 47.143-48.572 2-2.286 2-6.286 0-3.428-2.286-6.571-4.286-6-14.572-19t-15.428-20.143q7.428-14.286 11.714-28l52.286-8q3.714-.571 6-3.571t2.286-6.714z" unicode="&#xf013;"/><glyph d="M146.286 265.143v-164.571q0-4-2.571-6.572t-6.571-2.572h-18.285q-4 0-6.572 2.572t-2.572 6.572v164.571q0 4 2.572 6.572t6.572 2.571h18.285q4 0 6.572-2.571t2.571-6.572zM219.429 265.143v-164.571q0-4-2.571-6.572t-6.572-2.572h-18.286q-4 0-6.572 2.572t-2.571 6.572v164.571q0 4 2.571 6.572t6.572 2.571h18.286q4 0 6.572-2.571t2.571-6.572zM292.572 265.143v-164.571q0-4-2.572-6.572t-6.572-2.572h-18.286q-4 0-6.572 2.572t-2.571 6.572v164.571q0 4 2.571 6.572t6.572 2.571h18.286q4 0 6.572-2.571t2.572-6.572zM329.143 58.286v270.857h-256v-270.857q0-6.286 2-11.572t4.143-7.714 3-2.428h237.715q.857 0 3 2.428t4.143 7.714 2 11.572zM137.143 365.714h128l-13.714 33.429q-2 2.571-4.857 3.143h-90.571q-2.857-.572-4.857-3.143zM402.286 356.572v-18.285q0-4-2.572-6.572t-6.572-2.572h-27.428v-270.857q0-23.714-13.428-41t-32.286-17.286h-237.714q-18.857 0-32.285 16.714t-13.428 40.428v272h-27.428q-4 0-6.572 2.571t-2.571 6.572v18.286q0 4 2.571 6.571t6.572 2.572h88.285l20 47.714q4.285 10.572 15.429 18t22.572 7.428h91.428q11.428 0 22.572-7.428t15.428-18l20-47.714h88.286q4 0 6.572-2.572t2.572-6.571z" horiz-adv-x="403" unicode="&#xf014;"/><glyph d="M402.286 192v-137.143q0-7.428-5.428-12.857t-12.857-5.428h-109.714v109.714h-73.143v-109.714h-109.715q-7.428 0-12.857 5.428t-5.428 12.857v137.143q0 .286.143.857t.143.857l164.286 135.428 164.285-135.428q.286-.572.286-1.714zM466 211.714l-17.714-21.143q-2.286-2.572-6-3.143h-.857q-3.714 0-6 2l-197.714 164.857-197.714-164.857q-3.428-2.286-6.857-2-3.715.572-6 3.143l-17.715 21.143q-2.285 2.857-2 6.714t3.143 6.143l205.428 171.143q9.143 7.428 21.714 7.428t21.714-7.428l69.714-58.286v55.714q0 4 2.572 6.572t6.572 2.572h54.857q4 0 6.572-2.572t2.572-6.572v-116.572l62.572-52q2.857-2.286 3.143-6.143t-2-6.714z" horiz-adv-x="476" unicode="&#xf015;"/><glyph d="M419.428 366.857q8-8 13.714-21.714t5.714-25.143v-329.143q0-11.428-8-19.428t-19.428-8h-384q-11.428 0-19.428 8t-8 19.428v457.143q0 11.428 8 19.428t19.428 8h256q11.428 0 25.143-5.714t21.714-13.714zM292.572 436.572v-107.428h107.428q-2.857 8.286-6.286 11.714l-89.428 89.428q-3.428 3.428-11.714 6.286zM402.286 0v292.572h-118.857q-11.428 0-19.428 8t-8 19.428v118.857h-219.429v-438.857h365.714z" unicode="&#xf016;"/><glyph d="M256 320v-128q0-4-2.571-6.572t-6.571-2.572h-91.428q-4 0-6.572 2.572t-2.571 6.572v18.286q0 4 2.571 6.572t6.572 2.571h64v100.572q0 4 2.571 6.572t6.571 2.571h18.286q4 0 6.572-2.571t2.572-6.572zM374.857 219.429q0 42.286-20.857 78t-56.572 56.572-78 20.857-78-20.857-56.572-56.572-20.857-78 20.857-78 56.572-56.572 78-20.857 78 20.857 56.572 56.572 20.857 78zM438.857 219.429q0-59.714-29.428-110.143t-79.857-79.857-110.143-29.428-110.143 29.428-79.857 79.857-29.428 110.143 29.428 110.143 79.857 79.857 110.143 29.428 110.143-29.428 79.857-79.857 29.428-110.143z" unicode="&#xf017;"/><glyph d="M317.428 190.857v1.143l-6.857 91.428q-.286 3.714-3.143 6.428t-6.572 2.714h-53.143q-3.714 0-6.571-2.714t-3.143-6.428l-6.857-91.428v-1.143q-.286-3.428 2.286-5.714t6-2.286h69.714q3.428 0 6 2.286t2.286 5.714zM534.285 57.429q0-20.857-13.143-20.857h-201.143q3.714 0 6.286 2.714t2.286 6.428l-5.714 73.143q-.286 3.714-3.143 6.428t-6.572 2.714h-77.714q-3.714 0-6.572-2.714t-3.143-6.428l-5.714-73.143q-.286-3.714 2.286-6.428t6.286-2.714h-201.143q-13.143 0-13.143 20.857 0 15.428 7.428 33.143l119.143 298.286q2.286 5.428 7.428 9.428t10.857 4h96.857q-3.714 0-6.572-2.714t-3.143-6.428l-4.286-54.857q-.286-4 2.286-6.572t6.286-2.572h47.429q3.714 0 6.286 2.572t2.286 6.572l-4.286 54.857q-.286 3.714-3.143 6.429t-6.572 2.714h96.857q5.714 0 10.857-4t7.428-9.429l119.143-298.285q7.428-17.714 7.428-33.143z" horiz-adv-x="549" unicode="&#xf018;"/><glyph d="M365.714 91.429q0 7.428-5.428 12.857t-12.857 5.428-12.857-5.428-5.428-12.857 5.428-12.857 12.857-5.428 12.857 5.428 5.428 12.857zM438.857 91.429q0 7.428-5.428 12.857t-12.857 5.428-12.857-5.428-5.428-12.857 5.428-12.857 12.857-5.428 12.857 5.428 5.428 12.857zM475.428 155.429v-91.428q0-11.428-8-19.428t-19.428-8h-420.572q-11.428 0-19.428 8t-8 19.428v91.428q0 11.428 8 19.428t19.428 8h132.857l38.571-38.857q16.572-16 38.857-16t38.857 16l38.857 38.857h132.572q11.428 0 19.428-8t8-19.428zM382.572 318q4.857-11.714-4-20l-128-128q-5.143-5.428-12.857-5.428t-12.857 5.428l-128 128q-8.857 8.286-4 20 4.857 11.143 16.857 11.143h73.143v128q0 7.429 5.428 12.857t12.857 5.428h73.143q7.428 0 12.857-5.428t5.428-12.857v-128h73.143q12 0 16.857-11.143z" horiz-adv-x="476" unicode="&#xf019;"/><glyph d="M320 210.286q0-3.428-2.857-6.857l-91.143-91.143q-3.143-2.572-6.571-2.572t-6.572 2.572l-91.428 91.428q-4.285 4.572-2 10 2.285 5.714 8.572 5.714h54.857v100.572q0 4 2.571 6.572t6.571 2.571h54.857q4 0 6.571-2.571t2.571-6.572v-100.572h54.857q4 0 6.572-2.572t2.572-6.572zM219.429 374.857q-42.285 0-78-20.857t-56.572-56.572-20.857-78 20.857-78 56.572-56.572 78-20.857 78 20.857 56.572 56.572 20.857 78-20.857 78-56.572 56.572-78 20.857zM438.857 219.429q0-59.714-29.428-110.143t-79.857-79.857-110.143-29.428-110.143 29.428-79.857 79.857-29.428 110.143 29.428 110.143 79.857 79.857 110.143 29.428 110.143-29.428 79.857-79.857 29.428-110.143z" unicode="&#xf01a;"/><glyph d="M319.428 225.143q-2.286-5.714-8.572-5.714h-54.857v-100.572q0-4-2.571-6.572t-6.572-2.572h-54.857q-4 0-6.571 2.572t-2.571 6.572v100.572h-54.857q-4 0-6.572 2.571t-2.572 6.572q0 3.428 2.857 6.857l91.143 91.143q3.143 2.571 6.571 2.571t6.572-2.571l91.428-91.428q4.286-4.572 2-10zM219.429 374.857q-42.285 0-78-20.857t-56.572-56.572-20.857-78 20.857-78 56.572-56.572 78-20.857 78 20.857 56.572 56.572 20.857 78-20.857 78-56.572 56.572-78 20.857zM438.857 219.429q0-59.714-29.428-110.143t-79.857-79.857-110.143-29.428-110.143 29.428-79.857 79.857-29.428 110.143 29.428 110.143 79.857 79.857 110.143 29.428 110.143-29.428 79.857-79.857 29.428-110.143z" unicode="&#xf01b;"/><glyph d="M292.286 201.143h90.286q-.286.857-.714 2.286t-.714 2.286l-60.572 141.714h-202.286l-60.572-141.714q-.285-.572-.715-2.286t-.715-2.286h90.285l27.143-54.857h91.428zM438.857 192.572v-137.714q0-7.428-5.428-12.857t-12.857-5.428h-402.286q-7.428 0-12.857 5.428t-5.428 12.857v137.714q0 17.714 7.143 35.143l68 157.714q2.857 7.143 10.428 12t15 4.857h237.714q7.428 0 15-4.857t10.428-12l68-157.714q7.143-17.428 7.143-35.143z" unicode="&#xf01c;"/><glyph d="M338.286 219.429q0-10.572-9.143-15.714l-155.429-91.428q-4.286-2.572-9.143-2.572-4.572 0-9.143 2.286-9.143 5.428-9.143 16v182.857q0 10.572 9.143 16 9.429 5.143 18.285-.286l155.429-91.428q9.143-5.143 9.143-15.714zM374.857 219.429q0 42.286-20.857 78t-56.572 56.572-78 20.857-78-20.857-56.572-56.572-20.857-78 20.857-78 56.572-56.572 78-20.857 78 20.857 56.572 56.572 20.857 78zM438.857 219.429q0-59.714-29.428-110.143t-79.857-79.857-110.143-29.428-110.143 29.428-79.857 79.857-29.428 110.143 29.428 110.143 79.857 79.857 110.143 29.428 110.143-29.428 79.857-79.857 29.428-110.143z" unicode="&#xf01d;"/><glyph d="M438.857 402.286v-128q0-7.428-5.428-12.857t-12.857-5.428h-128q-12 0-16.857 11.428-4.857 11.143 4 19.714l39.428 39.428q-42.286 39.143-99.714 39.143-29.714 0-56.714-11.572t-46.715-31.285-31.285-46.714-11.572-56.714 11.572-56.714 31.285-46.714 46.715-31.286 56.714-11.572q34 0 64.286 14.857t51.143 42q2 2.857 6.572 3.428 4 0 7.143-2.572l39.143-39.428q2.572-2.286 2.714-5.857t-2.143-6.428q-31.143-37.714-75.428-58.428t-93.428-20.714q-44.572 0-85.143 17.428t-70 46.857-46.857 70-17.428 85.143 17.428 85.143 46.857 70 70 46.857 85.143 17.428q42 0 81.286-15.857t69.857-44.715l37.143 36.857q8.286 8.857 20 4 11.143-4.857 11.143-16.857z" unicode="&#xf01e;"/><glyph d="M431.714 173.714q0-1.428-.286-2-18.286-76.572-76.572-124.143t-136.571-47.572q-41.715 0-80.715 15.714t-69.572 44.857l-36.857-36.857q-5.428-5.428-12.857-5.428t-12.857 5.428-5.428 12.857v128q0 7.428 5.428 12.857t12.857 5.428h128q7.428 0 12.857-5.428t5.429-12.857-5.428-12.857l-39.143-39.143q20.285-18.857 46-29.143t53.429-10.286q38.286 0 71.428 18.572t53.143 51.143q3.143 4.857 15.143 33.428 2.286 6.572 8.572 6.572h54.857q3.714 0 6.428-2.714t2.714-6.428zM438.857 402.286v-128q0-7.428-5.428-12.857t-12.857-5.428h-128q-7.428 0-12.857 5.428t-5.428 12.857 5.428 12.857l39.428 39.428q-42.286 39.143-99.714 39.143-38.286 0-71.428-18.571t-53.143-51.143q-3.143-4.857-15.143-33.428-2.285-6.572-8.572-6.572h-56.857q-3.715 0-6.428 2.714t-2.715 6.428v2q18.572 76.572 77.143 124.143t137.143 47.572q41.714 0 81.143-15.857t70-44.714l37.143 36.857q5.428 5.428 12.857 5.428t12.857-5.428 5.428-12.857z" unicode="&#xf021;"/><glyph d="M109.715 137.143v-18.286q0-3.714-2.715-6.428t-6.428-2.714h-18.285q-3.715 0-6.428 2.714t-2.715 6.428v18.286q0 3.714 2.715 6.428t6.428 2.714h18.285q3.715 0 6.428-2.714t2.715-6.428zM109.715 210.286v-18.286q0-3.714-2.715-6.428t-6.428-2.714h-18.285q-3.715 0-6.428 2.714t-2.715 6.428v18.286q0 3.714 2.715 6.428t6.428 2.714h18.285q3.715 0 6.428-2.714t2.715-6.428zM109.715 283.429v-18.286q0-3.714-2.715-6.428t-6.428-2.714h-18.285q-3.715 0-6.428 2.714t-2.715 6.428v18.286q0 3.714 2.715 6.428t6.428 2.714h18.285q3.715 0 6.428-2.714t2.715-6.428zM438.857 137.143v-18.286q0-3.714-2.714-6.428t-6.428-2.714h-274.286q-3.714 0-6.428 2.714t-2.714 6.428v18.286q0 3.714 2.714 6.428t6.428 2.714h274.286q3.714 0 6.428-2.714t2.714-6.428zM438.857 210.286v-18.286q0-3.714-2.714-6.428t-6.428-2.714h-274.286q-3.714 0-6.428 2.714t-2.714 6.428v18.286q0 3.714 2.714 6.428t6.428 2.714h274.286q3.714 0 6.428-2.714t2.714-6.428zM438.857 283.429v-18.286q0-3.714-2.714-6.428t-6.428-2.714h-274.286q-3.714 0-6.428 2.714t-2.714 6.428v18.286q0 3.714 2.714 6.428t6.428 2.714h274.286q3.714 0 6.428-2.714t2.714-6.428zM475.428 82.286v237.714q0 3.714-2.714 6.428t-6.428 2.714h-420.572q-3.715 0-6.428-2.714t-2.715-6.428v-237.714q0-3.714 2.715-6.428t6.428-2.714h420.572q3.714 0 6.428 2.714t2.714 6.428zM512 393.143v-310.857q0-18.857-13.428-32.286t-32.286-13.428h-420.572q-18.857 0-32.285 13.428t-13.428 32.286v310.857q0 18.857 13.428 32.286t32.285 13.428h420.572q18.857 0 32.286-13.428t13.428-32.286z" unicode="&#xf022;"/><glyph d="M91.428 256h146.286v54.857q0 30.286-21.428 51.714t-51.714 21.428-51.715-21.428-21.428-51.714v-54.857zM329.143 228.572v-164.571q0-11.428-8-19.428t-19.428-8h-274.286q-11.428 0-19.428 8t-8 19.428v164.571q0 11.429 8 19.429t19.428 8h9.143v54.857q0 52.572 37.715 90.286t90.285 37.714 90.285-37.714 37.714-90.286v-54.857h9.143q11.428 0 19.428-8t8-19.428z" horiz-adv-x="329" unicode="&#xf023;"/><glyph d="M91.428 402.286q0-20.572-18.285-31.428v-361.714q0-3.714-2.715-6.428t-6.428-2.714h-18.285q-3.715 0-6.428 2.714t-2.715 6.428v361.714q-18.285 10.857-18.285 31.428 0 15.143 10.715 25.857t25.857 10.715 25.857-10.715 10.715-25.857zM512 384v-218q0-7.143-3.572-11t-11.286-7.857q-61.428-33.143-105.428-33.143-17.428 0-35.286 6.286t-31 13.714-33 13.714-40.714 6.286q-54.857 0-132.571-41.714-4.857-2.572-9.428-2.572-7.428 0-12.857 5.428t-5.428 12.857v212q0 9.143 8.857 15.714 6 4 22.572 12.286 67.428 34.285 120.285 34.285 30.571 0 57.143-8.285t62.572-25.143q10.857-5.428 25.143-5.428 15.428 0 33.572 6t31.428 13.428 25.143 13.428 15.572 6q7.428 0 12.857-5.428t5.428-12.857z" unicode="&#xf024;"/><glyph d="M475.428 222.286q0-47.428-17.143-89.714l-5.714-14-52.857-9.428q-6.286-23.714-25.857-39t-44.714-15.286v-9.143q0-4-2.572-6.572t-6.572-2.572h-18.286q-4 0-6.572 2.572t-2.572 6.572v164.572q0 4 2.572 6.572t6.572 2.572h18.286q4 0 6.572-2.572t2.572-6.572v-9.143q20.286 0 37.143-10.143t26.572-27.286l19.428 3.428q8.286 27.143 8.286 55.143 0 42.286-25.143 79.715t-67.572 59.714-90.143 22.286-90.143-22.286-67.572-59.714-25.143-79.714q0-28 8.285-55.143l19.428-3.428q9.715 17.143 26.572 27.286t37.143 10.143v9.143q0 4 2.571 6.572t6.571 2.572h18.286q4 0 6.572-2.572t2.571-6.572v-164.572q0-4-2.571-6.572t-6.572-2.572h-18.286q-4 0-6.572 2.572t-2.571 6.572v9.143q-25.143 0-44.715 15.286t-25.857 39l-52.857 9.428-5.715 14q-17.143 42.286-17.143 89.714 0 43.143 19.143 83.143t51.143 69.286 76 46.714 91.429 17.429 91.428-17.429 76-46.714 51.143-69.286 19.143-83.143z" horiz-adv-x="476" unicode="&#xf025;"/><glyph d="M219.429 374.857v-310.857q0-7.428-5.429-12.857t-12.857-5.428-12.857 5.428l-95.143 95.143h-74.857q-7.428 0-12.857 5.428t-5.428 12.857v109.714q0 7.428 5.428 12.857t12.857 5.429h74.857l95.143 95.143q5.428 5.429 12.857 5.429t12.857-5.429 5.428-12.857z" horiz-adv-x="220" unicode="&#xf026;"/><glyph d="M219.429 374.857v-310.857q0-7.428-5.429-12.857t-12.857-5.428-12.857 5.428l-95.143 95.143h-74.857q-7.428 0-12.857 5.428t-5.428 12.857v109.714q0 7.428 5.428 12.857t12.857 5.429h74.857l95.143 95.143q5.428 5.429 12.857 5.429t12.857-5.429 5.428-12.857zM329.143 219.429q0-21.714-12.143-40.428t-32.143-26.714q-2.857-1.428-7.143-1.428-7.428 0-12.857 5.286t-5.428 13q0 6 3.428 10.143t8.286 7.143 9.714 6.572 8.286 10.143 3.428 16.286-3.428 16.286-8.286 10.143-9.714 6.572-8.286 7.143-3.428 10.143q0 7.714 5.428 13t12.857 5.286q4.286 0 7.143-1.429 20-7.714 32.143-26.571t12.143-40.572z" horiz-adv-x="329" unicode="&#xf027;"/><glyph d="M219.429 374.857v-310.857q0-7.428-5.429-12.857t-12.857-5.428-12.857 5.428l-95.143 95.143h-74.857q-7.428 0-12.857 5.428t-5.428 12.857v109.714q0 7.428 5.428 12.857t12.857 5.429h74.857l95.143 95.143q5.428 5.429 12.857 5.429t12.857-5.429 5.428-12.857zM329.143 219.429q0-21.714-12.143-40.428t-32.143-26.714q-2.857-1.428-7.143-1.428-7.428 0-12.857 5.286t-5.428 13q0 6 3.428 10.143t8.286 7.143 9.714 6.572 8.286 10.143 3.428 16.286-3.428 16.286-8.286 10.143-9.714 6.572-8.286 7.143-3.428 10.143q0 7.714 5.428 13t12.857 5.286q4.286 0 7.143-1.429 20-7.714 32.143-26.571t12.143-40.572zM402.286 219.429q0-43.714-24.286-80.714t-64.286-53.857q-3.714-1.428-7.143-1.428-7.714 0-13.143 5.428t-5.428 12.857q0 11.143 11.143 16.857 16 8.286 21.714 12.572 21.143 15.428 33 38.714t11.857 49.572-11.857 49.572-33 38.714q-5.714 4.286-21.714 12.572-11.143 5.714-11.143 16.857 0 7.429 5.428 12.857t12.857 5.428q3.714 0 7.428-1.428 40-16.857 64.286-53.857t24.286-80.714zM475.428 219.429q0-65.714-36.286-120.714t-96.572-81q-3.714-1.428-7.428-1.428-7.428 0-12.857 5.428t-5.428 12.857q0 10.286 11.143 16.857 2 1.143 6.428 3t6.428 3q13.143 7.143 23.428 14.572 35.143 26 54.857 64.857t19.714 82.572-19.714 82.572-54.857 64.857q-10.286 7.428-23.428 14.572-2 1.143-6.428 3t-6.428 3q-11.143 6.572-11.143 16.857 0 7.429 5.428 12.857t12.857 5.428q3.714 0 7.428-1.428 60.286-26 96.572-81t36.286-120.714z" horiz-adv-x="476" unicode="&#xf028;"/><glyph d="M109.715 146.286v-36.572h-36.572v36.572h36.572zM109.715 365.714v-36.571h-36.572v36.571h36.572zM329.143 365.714v-36.571h-36.572v36.571h36.572zM36.572 73.429h109.715v109.428h-109.715v-109.428zM36.572 292.572h109.715v109.714h-109.715v-109.714zM256 292.572h109.714v109.714h-109.714v-109.714zM182.857 219.429v-182.857h-182.857v182.857h182.857zM329.143 73.143v-36.572h-36.572v36.572h36.572zM402.286 73.143v-36.572h-36.572v36.572h36.572zM402.286 219.429v-109.714h-109.714v36.572h-36.572v-109.714h-36.572v182.857h109.714v-36.572h36.572v36.572h36.572zM182.857 438.857v-182.857h-182.857v182.857h182.857zM402.286 438.857v-182.857h-182.857v182.857h182.857z" horiz-adv-x="403" unicode="&#xf029;"/><glyph d="M18 36.572h-18v402.286h18v-402.286zM36 36.857h-9.143v402h9.143v-402zM62.857 36.857h-8.857v402h8.857v-402zM107.715 36.857h-8.857v402h8.857v-402zM152.571 36.857h-17.715v402h17.714v-402zM188.571 36.857h-8.857v402h8.857v-402zM206.571 36.857h-8.857v402h8.857v-402zM224.571 36.857h-8.857v402h8.857v-402zM269.428 36.857h-18v402h18v-402zM314.286 36.857h-18v402h18v-402zM350.286 36.857h-18v402h18v-402zM386.286 36.857h-18v402h18v-402zM413.143 36.857h-18v402h18v-402zM467.143 36.857h-26.857v402h26.857v-402zM485.143 36.857h-9.143v402h9.143v-402zM512 36.572h-18v402.286h18v-402.286z" unicode="&#xf02a;"/><glyph d="M128 347.429q0 15.143-10.715 25.857t-25.857 10.715-25.857-10.715-10.715-25.857 10.715-25.857 25.857-10.714 25.857 10.714 10.715 25.857zM432.857 182.857q0-15.143-10.572-25.714l-140.286-140.571q-11.143-10.572-26-10.572-15.143 0-25.714 10.572l-204.286 204.571q-10.857 10.572-18.428 28.857t-7.572 33.428v118.857q0 14.857 10.857 25.715t25.715 10.857h118.857q15.143 0 33.428-7.572t29.143-18.428l204.285-204q10.572-11.143 10.572-26z" unicode="&#xf02b;"/><glyph d="M128 347.429q0 15.143-10.715 25.857t-25.857 10.715-25.857-10.715-10.715-25.857 10.715-25.857 25.857-10.714 25.857 10.714 10.715 25.857zM432.857 182.857q0-15.143-10.572-25.714l-140.286-140.571q-11.143-10.572-26-10.572-15.143 0-25.714 10.572l-204.286 204.571q-10.857 10.572-18.428 28.857t-7.572 33.428v118.857q0 14.857 10.857 25.715t25.715 10.857h118.857q15.143 0 33.428-7.572t29.143-18.428l204.285-204q10.572-11.143 10.572-26zM542.572 182.857q0-15.143-10.572-25.714l-140.286-140.571q-11.143-10.572-26-10.572-10.286 0-16.857 4t-15.143 12.857l134.286 134.286q10.572 10.572 10.572 25.714 0 14.857-10.572 26l-204.286 204q-10.857 10.857-29.143 18.428t-33.429 7.572h64q15.143 0 33.428-7.572t29.143-18.428l204.286-204q10.572-11.143 10.572-26z" horiz-adv-x="549" unicode="&#xf02c;"/><glyph d="M468.286 338.857q11.428-16.285 5.143-36.857l-78.572-258.857q-5.428-18.286-21.857-30.714t-35-12.428h-263.714q-22 0-42.428 15.286t-28.428 37.572q-6.857 19.143-.571 36.286 0 1.143.857 7.714t1.143 10.572q.285 2.286-.857 6.143t-.857 5.572q.571 3.143 2.285 6t4.715 6.714 4.714 6.714q6.572 10.857 12.857 26.143t8.572 26.143q.857 2.857.143 8.572t-.143 8q.857 3.143 4.857 8t4.857 6.572q6 10.286 12 26.286t7.143 25.714q.285 2.571-.715 9.143t.143 8q1.143 3.714 6.285 8.714t6.285 6.429q5.428 7.428 12.143 24.143t7.857 27.572q.285 2.286-.857 7.286t-.572 7.571q.572 2.286 2.572 5.143t5.143 6.572 4.857 6q2.285 3.428 4.715 8.714t4.285 10 4.572 10.286 5.572 9.143 7.571 6.714 10.286 3.286 13.572-1.571l-.286-.857q10.857 2.572 14.572 2.572h217.428q21.143 0 32.572-16t5.143-37.143l-78.286-258.857q-10.286-34-20.428-43.857t-36.714-9.857h-248.286q-7.715 0-10.857-4.286-3.143-4.572-.285-12.286 6.857-20 41.143-20h263.714q8.286 0 16 4.428t10 11.857l85.714 282q2 6.286 1.428 16.285 10.857-4.285 16.857-12.285zM164.286 338.286q-1.143-3.714.571-6.428t5.714-2.714h173.714q3.714 0 7.286 2.714t4.714 6.428l6 18.285q1.143 3.715-.572 6.429t-5.714 2.714h-173.714q-3.714 0-7.286-2.714t-4.714-6.429zM140.571 265.143q-1.143-3.714.571-6.428t5.714-2.714h173.714q3.714 0 7.286 2.714t4.714 6.428l6 18.286q1.143 3.714-.572 6.428t-5.714 2.714h-173.714q-3.714 0-7.286-2.714t-4.714-6.428z" horiz-adv-x="476" unicode="&#xf02d;"/><glyph d="M332.572 438.857q6.572 0 12.572-2.572 9.428-3.714 15-11.714t5.572-17.714v-368.286q0-9.714-5.572-17.714t-15-11.714q-5.428-2.286-12.572-2.286-13.714 0-23.714 9.143l-126 121.143-126-121.143q-10.285-9.428-23.715-9.428-6.572 0-12.572 2.572-9.428 3.714-15 11.714t-5.572 17.714v368.286q0 9.714 5.572 17.714t15 11.714q6 2.572 12.572 2.572h299.428z" horiz-adv-x="366" unicode="&#xf02e;"/><glyph d="M109.715 36.572h256v73.143h-256v-73.143zM109.715 219.429h256v109.714h-45.714q-11.428 0-19.428 8t-8 19.428v45.714h-182.857v-182.857zM438.857 201.143q0 7.428-5.428 12.857t-12.857 5.428-12.857-5.428-5.428-12.857 5.428-12.857 12.857-5.428 12.857 5.428 5.428 12.857zM475.428 201.143v-118.857q0-3.714-2.714-6.428t-6.428-2.714h-64v-45.714q0-11.428-8-19.428t-19.428-8h-274.286q-11.428 0-19.428 8t-8 19.428v45.714h-64q-3.715 0-6.428 2.714t-2.715 6.428v118.857q0 22.572 16.143 38.714t38.715 16.143h18.285v155.429q0 11.428 8 19.428t19.428 8h192q11.428 0 25.143-5.714t21.714-13.715l43.428-43.428q8-8 13.714-21.714t5.714-25.143v-73.143h18.286q22.572 0 38.714-16.143t16.143-38.714z" horiz-adv-x="476" unicode="&#xf02f;"/><glyph d="M274.286 283.429q34 0 58.143-24.143t24.143-58.143-24.143-58.143-58.143-24.143-58.143 24.143-24.143 58.143 24.143 58.143 58.143 24.143zM475.428 402.286q30.286 0 51.715-21.428t21.428-51.714v-256q0-30.286-21.428-51.714t-51.714-21.428h-402.286q-30.285 0-51.715 21.428t-21.428 51.714v256q0 30.286 21.428 51.714t51.715 21.428h64l14.572 38.857q5.428 14 19.857 24.143t29.571 10.143h146.286q15.143 0 29.572-10.143t19.857-24.143l14.572-38.857h64zM274.286 73.143q52.857 0 90.428 37.572t37.572 90.428-37.572 90.428-90.428 37.572-90.428-37.572-37.572-90.428 37.572-90.428 90.428-37.572z" horiz-adv-x="549" unicode="&#xf030;"/><glyph d="M207.143 315.714l-48.571-128.571q9.428 0 39-.572t45.857-.572q5.429 0 16.285.572-24.857 72.286-52.572 129.143zM0 0l.572 22.572q6.572 2 16 3.572t16.285 3 14.143 4.143 12.715 8.286 8.857 14.428l67.715 176 80 206.857h36.572q2.286-4 3.143-6l58.572-137.143q9.428-22.286 30.286-73.572t32.572-78.428q4.286-9.714 16.572-41.286t20.572-48.143q5.714-12.857 10-16.286 5.428-4.286 25.143-8.428t24-5.857q1.714-10.857 1.714-16.286 0-1.143-.143-3.714t-.143-3.714q-18 0-54.286 2.286t-54.572 2.286q-21.714 0-61.428-2t-50.857-2.286q0 12.286 1.143 22.286l37.428 8q.286 0 3.572.714t4.428 1 4.143 1.286 4.286 1.857 3.143 2.286 2.572 3.143.714 4q0 4.572-8.857 27.572t-20.572 50.714-12 28.572l-128.571.572q-7.429-16.572-21.857-55.857t-14.428-46.428q0-6.286 4-10.714t12.428-7 13.857-3.857 16.285-2.428 11.714-1.143q.286-5.428.286-16.572 0-2.572-.571-7.714-16.571 0-49.857 2.857t-49.857 2.857q-2.285 0-7.572-1.143t-6.143-1.143q-22.857-4-53.715-4z" horiz-adv-x="476" unicode="&#xf031;"/><glyph d="M158.571 40.857q21.143-9.143 40-9.143 107.429 0 107.429 95.714 0 32.572-11.714 51.428-7.714 12.572-17.572 21.143t-19.286 13.286-23 7.143-24 3-27 .572q-20.857 0-28.857-2.857 0-15.143-.143-45.428t-.143-45.143q0-2.286-.286-19.286t-.143-27.572 1.286-23.857 3.429-19zM154.571 254q12-2 31.143-2 23.428 0 40.857 3.714t31.429 12.714 21.286 25.572 7.286 40.572q0 20-8.286 35t-22.572 23.428-30.857 12.428-35.429 4q-14.286 0-37.143-3.714 0-14.286 1.143-43.143t1.143-43.428q0-7.714-.143-22.857t-.143-22.572q0-13.143.286-19.714zM0 0l.572 26.857q4.285 1.143 24.285 4.572t30.285 7.714q2 3.428 3.572 7.714t2.428 9.572 1.572 9.286.857 10.714.143 9.714v18.714q0 280.572-6.285 292.857-1.143 2.286-6.285 4.143t-12.715 3.143-14.143 2-13.857 1.285-8.714.857l-1.143 23.714q28 .572 97.143 3.286t106.572 2.714q6.572 0 19.572-.143t19.286-.143q20 0 39-3.714t36.714-12 30.857-20.286 21.143-29.857 8-39.286q0-14.857-4.714-27.286t-11.143-20.572-18.428-16.428-20.857-12.857-24-11.428q44-10 73.286-38.286t29.286-70.857q0-28.572-10-51.286t-26.714-37.286-39.428-24.428-46.714-13.857-50.286-4q-12.572 0-37.714.857t-37.714.857q-30.285 0-87.715-3.143t-66-3.428z" horiz-adv-x="403" unicode="&#xf032;"/><glyph d="M0 .572l4.857 24.286q1.715.572 23.285 6.143t31.857 10.714q8 10 11.715 28.857.285 2 17.715 82.572t32.572 155.286 14.857 84.714v7.143q-6.857 3.714-15.572 5.285t-19.857 2.286-16.572 1.572l5.428 29.428q9.428-.572 34.285-1.857t42.715-2 34.428-.714q13.714 0 28.143.714t34.571 2 28.143 1.857q-1.428-11.143-5.428-25.428-8.572-2.857-29-8.143t-31-9.571q-2.286-5.429-4-12.143t-2.571-11.428-2.143-13-1.857-12q-7.714-42.286-25-119.857t-22.143-101.571q-.571-2.572-3.714-16.572t-5.714-25.714-4.572-23.857-1.714-16.428l.286-5.143q4.857-1.143 52.857-8.857-.857-12.572-4.571-28.286-3.143 0-9.286-.428t-9.286-.428q-8.286 0-24.857 2.857t-24.571 2.857q-39.428.572-58.857.572-14.572 0-40.857-2.572t-34.572-3.143z" horiz-adv-x="293" unicode="&#xf033;"/><glyph d="M498.286 73.143q9.428 0 12-5.286t-3.143-12.714l-36-46.286q-5.714-7.428-14-7.428t-14 7.428l-36 46.286q-5.714 7.428-3.143 12.714t12 5.286h22.857v292.572h-22.857q-9.428 0-12 5.286t3.143 12.714l36 46.286q5.714 7.428 14 7.428t14-7.428l36-46.286q5.714-7.429 3.143-12.714t-12-5.286h-22.857v-292.572h22.857zM23.143 438.572l15.428-7.714q3.428-1.428 60.285-1.428 12.572 0 37.715.572t37.714.571q10.286 0 30.714-.143t30.714-.143h83.714q1.714 0 6-.143t5.857 0 4.572.857 5 2.572 4.286 5l12 .286q1.143 0 4-.143t4-.143q.572-32 .572-96 0-22.857-1.428-31.143-11.143-4-19.428-5.143-7.143 12.572-15.428 36.572-.857 2.571-3.143 13.714t-4.143 21-2.143 10.143q-1.714 2.286-3.428 3.572t-4.428 1.715-3.714.714-5.143.143-4.714-.143q-4.857 0-19 .143t-21.286.143-18.286-.572-20.286-1.714q-2.571-23.143-2.286-38.857 0-26.857.571-110.857t.571-130q0-4.572-.714-20.428t0-26.143 3.571-19.714q11.429-6 35.429-12.143t34.286-10.714q1.428-11.428 1.428-14.286 0-4-.857-8.286l-9.714-.286q-21.714-.572-62.286 2.286t-59.143 2.857q-14.286 0-43.143-2.572t-43.428-2.572q-.857 14.572-.857 14.857v2.572q4.857 7.714 17.572 12.286t28.143 8.286 22.285 7.714q5.428 12 5.428 109.428 0 28.857-.857 86.572t-.857 86.572v33.428q0 .572.143 4.428t.143 7.143-.286 7.286-.857 6.857-1.429 4q-3.143 3.428-46.285 3.428-9.428 0-26.572-3.428t-22.857-7.428q-5.428-3.715-9.715-20.715t-9-31.714-12.143-15.286q-12 7.429-16 12.572v109.428z" unicode="&#xf034;"/><glyph d="M23.143 438.572l15.428-7.714q3.428-1.428 60.285-1.428 12.572 0 37.715.572t37.714.571q20 0 70.428.286t87 .143 70.572-1.286q9.428-.286 16 8.857l12 .286q1.143 0 4-.143t4-.143q.572-32 .572-96 0-22.857-1.428-31.143-11.143-4-19.428-5.143-7.143 12.572-15.428 36.572-.857 2.571-3.143 13.572t-4.286 21-2 10.285q-2.857 3.715-7.714 5.428-1.428.572-18.857.572-8.572 0-26.572.286t-29.428.286-26.857-.572-27.428-2q-2.571-23.143-2.286-38.857l.286-43.429v14.857q0-15.714.286-44t.429-51.428.143-43.714q0-4.572-.714-20.428t0-26.143 3.572-19.714q11.428-6 35.428-12.143t34.286-10.714q1.428-11.428 1.428-14.286 0-4-.857-8.286l-9.714-.286q-21.714-.572-62.286 2.286t-59.143 2.857q-14.286 0-43.143-2.572t-43.428-2.572q-.857 14.572-.857 14.857v2.572q4.857 7.714 17.572 12.286t28.143 8.286 22.285 7.714q2 4.572 3.286 21.143t1.714 41.572.429 44.286-.143 43.857-.143 25.429q0 2-.714 6.143t-.714 6.429q0 2 .143 12.572t.286 20.857 0 21.857-.857 19.286-1.857 9.143q-3.143 3.428-46.286 3.428-11.715 0-46.572-3.857t-39.428-7q-5.428-3.429-9.715-20.429t-9-31.857-12.143-15.428q-12 7.428-16 12.572v109.428zM374.286 72.286q3.428 0 12-5.572t16.428-11.857 17-14 10.286-8.572q7.428-6 7.428-14t-7.428-14q-1.143-.857-10.286-8.572t-17-14-16.428-11.857-12-5.572q-3.714 0-5.857 3t-2.857 8.143-.714 9.572.428 9.428.428 5.572h-292.572q0-.572.428-5.572t.428-9.428-.715-9.572-2.857-8.143-5.857-3q-3.428 0-12 5.572t-16.428 11.857-17 14-10.286 8.572q-7.428 6-7.428 14t7.428 14q1.143.857 10.286 8.572t17 14 16.428 11.857 12 5.572q3.715 0 5.857-3t2.857-8.143.715-9.572-.428-9.428-.428-5.572h292.572q0 .572-.428 5.572t-.428 9.428.714 9.572 2.857 8.143 5.857 3z" unicode="&#xf035;"/><glyph d="M512 91.429v-36.572q0-7.428-5.428-12.857t-12.857-5.428h-475.428q-7.428 0-12.857 5.428t-5.428 12.857v36.572q0 7.428 5.428 12.857t12.857 5.428h475.428q7.428 0 12.857-5.428t5.428-12.857zM402.286 201.143v-36.572q0-7.428-5.428-12.857t-12.857-5.428h-365.714q-7.428 0-12.857 5.428t-5.428 12.857v36.572q0 7.428 5.428 12.857t12.857 5.428h365.714q7.428 0 12.857-5.428t5.428-12.857zM475.428 310.857v-36.571q0-7.428-5.428-12.857t-12.857-5.428h-438.857q-7.428 0-12.857 5.428t-5.428 12.857v36.572q0 7.428 5.428 12.857t12.857 5.429h438.857q7.428 0 12.857-5.428t5.428-12.857zM365.714 420.572v-36.571q0-7.429-5.428-12.857t-12.857-5.428h-329.143q-7.428 0-12.857 5.428t-5.428 12.857v36.571q0 7.429 5.428 12.857t12.857 5.428h329.143q7.428 0 12.857-5.428t5.428-12.857z" unicode="&#xf036;"/><glyph d="M512 91.429v-36.572q0-7.428-5.428-12.857t-12.857-5.428h-475.428q-7.428 0-12.857 5.428t-5.428 12.857v36.572q0 7.428 5.428 12.857t12.857 5.428h475.428q7.428 0 12.857-5.428t5.428-12.857zM402.286 201.143v-36.572q0-7.428-5.428-12.857t-12.857-5.428h-256q-7.428 0-12.857 5.428t-5.428 12.857v36.572q0 7.428 5.428 12.857t12.857 5.428h256q7.428 0 12.857-5.428t5.428-12.857zM475.428 310.857v-36.571q0-7.428-5.428-12.857t-12.857-5.428h-402.286q-7.428 0-12.857 5.428t-5.428 12.857v36.572q0 7.428 5.428 12.857t12.857 5.429h402.286q7.428 0 12.857-5.428t5.428-12.857zM365.714 420.572v-36.571q0-7.429-5.428-12.857t-12.857-5.428h-182.857q-7.429 0-12.857 5.428t-5.428 12.857v36.571q0 7.429 5.428 12.857t12.857 5.428h182.857q7.428 0 12.857-5.428t5.428-12.857z" unicode="&#xf037;"/><glyph d="M512 91.429v-36.572q0-7.428-5.428-12.857t-12.857-5.428h-475.428q-7.428 0-12.857 5.428t-5.428 12.857v36.572q0 7.428 5.428 12.857t12.857 5.428h475.428q7.428 0 12.857-5.428t5.428-12.857zM512 201.143v-36.572q0-7.428-5.428-12.857t-12.857-5.428h-365.714q-7.428 0-12.857 5.428t-5.428 12.857v36.572q0 7.428 5.428 12.857t12.857 5.428h365.714q7.428 0 12.857-5.428t5.428-12.857zM512 310.857v-36.571q0-7.428-5.428-12.857t-12.857-5.428h-438.857q-7.428 0-12.857 5.428t-5.428 12.857v36.572q0 7.428 5.428 12.857t12.857 5.429h438.857q7.428 0 12.857-5.428t5.428-12.857zM512 420.572v-36.571q0-7.429-5.428-12.857t-12.857-5.428h-329.143q-7.428 0-12.857 5.428t-5.429 12.857v36.571q0 7.429 5.428 12.857t12.857 5.428h329.143q7.428 0 12.857-5.428t5.428-12.857z" unicode="&#xf038;"/><glyph d="M512 91.429v-36.572q0-7.428-5.428-12.857t-12.857-5.428h-475.428q-7.428 0-12.857 5.428t-5.428 12.857v36.572q0 7.428 5.428 12.857t12.857 5.428h475.428q7.428 0 12.857-5.428t5.428-12.857zM512 201.143v-36.572q0-7.428-5.428-12.857t-12.857-5.428h-475.428q-7.428 0-12.857 5.428t-5.428 12.857v36.572q0 7.428 5.428 12.857t12.857 5.428h475.428q7.428 0 12.857-5.428t5.428-12.857zM512 310.857v-36.571q0-7.428-5.428-12.857t-12.857-5.428h-475.428q-7.428 0-12.857 5.428t-5.428 12.857v36.572q0 7.428 5.428 12.857t12.857 5.429h475.428q7.428 0 12.857-5.428t5.428-12.857zM512 420.572v-36.571q0-7.429-5.428-12.857t-12.857-5.428h-475.428q-7.428 0-12.857 5.428t-5.428 12.857v36.571q0 7.429 5.428 12.857t12.857 5.428h475.428q7.428 0 12.857-5.428t5.428-12.857z" unicode="&#xf039;"/><glyph d="M73.143 100.572v-54.857q0-3.714-2.715-6.428t-6.428-2.714h-54.857q-3.715 0-6.428 2.714t-2.715 6.428v54.857q0 3.714 2.715 6.428t6.428 2.714h54.857q3.715 0 6.428-2.714t2.715-6.428zM73.143 210.286v-54.857q0-3.714-2.715-6.428t-6.428-2.714h-54.857q-3.715 0-6.428 2.714t-2.715 6.428v54.857q0 3.714 2.715 6.428t6.428 2.714h54.857q3.715 0 6.428-2.714t2.715-6.428zM73.143 320v-54.857q0-3.714-2.715-6.428t-6.428-2.714h-54.857q-3.715 0-6.428 2.714t-2.715 6.428v54.857q0 3.714 2.715 6.429t6.428 2.714h54.857q3.715 0 6.428-2.714t2.715-6.428zM512 100.572v-54.857q0-3.714-2.714-6.428t-6.428-2.714h-384q-3.715 0-6.428 2.714t-2.715 6.428v54.857q0 3.714 2.715 6.428t6.428 2.714h384q3.714 0 6.428-2.714t2.714-6.428zM73.143 429.714v-54.857q0-3.714-2.715-6.428t-6.428-2.715h-54.857q-3.715 0-6.428 2.715t-2.715 6.428v54.857q0 3.715 2.715 6.429t6.428 2.714h54.857q3.715 0 6.428-2.714t2.715-6.429zM512 210.286v-54.857q0-3.714-2.714-6.428t-6.428-2.714h-384q-3.715 0-6.428 2.714t-2.715 6.428v54.857q0 3.714 2.715 6.428t6.428 2.714h384q3.714 0 6.428-2.714t2.714-6.428zM512 320v-54.857q0-3.714-2.714-6.428t-6.428-2.714h-384q-3.715 0-6.428 2.714t-2.715 6.428v54.857q0 3.714 2.715 6.429t6.428 2.714h384q3.714 0 6.428-2.714t2.714-6.428zM512 429.714v-54.857q0-3.714-2.714-6.428t-6.428-2.715h-384q-3.715 0-6.428 2.715t-2.715 6.428v54.857q0 3.715 2.715 6.429t6.428 2.714h384q3.714 0 6.428-2.714t2.714-6.429z" unicode="&#xf03a;"/><glyph d="M109.715 320v-164.571q0-3.714-2.715-6.428t-6.428-2.714q-4 0-6.572 2.572l-82.285 82.286q-2.572 2.571-2.572 6.572t2.572 6.572l82.285 82.286q2.572 2.571 6.572 2.571 3.715 0 6.428-2.714t2.715-6.428zM512 100.572v-54.857q0-3.714-2.714-6.428t-6.428-2.714h-493.714q-3.715 0-6.428 2.714t-2.715 6.428v54.857q0 3.714 2.715 6.428t6.428 2.714h493.714q3.714 0 6.428-2.714t2.714-6.428zM512 210.286v-54.857q0-3.714-2.714-6.428t-6.428-2.714h-310.857q-3.714 0-6.428 2.714t-2.714 6.428v54.857q0 3.714 2.714 6.428t6.428 2.714h310.857q3.714 0 6.428-2.714t2.714-6.428zM512 320v-54.857q0-3.714-2.714-6.428t-6.428-2.714h-310.857q-3.714 0-6.428 2.714t-2.714 6.428v54.857q0 3.714 2.714 6.429t6.428 2.714h310.857q3.714 0 6.428-2.714t2.714-6.428zM512 429.714v-54.857q0-3.714-2.714-6.428t-6.428-2.715h-493.714q-3.715 0-6.428 2.715t-2.715 6.428v54.857q0 3.715 2.715 6.429t6.428 2.714h493.714q3.714 0 6.428-2.714t2.714-6.429z" unicode="&#xf03b;"/><glyph d="M100.572 237.714q0-4-2.572-6.572l-82.285-82.286q-2.572-2.572-6.572-2.572-3.715 0-6.428 2.714t-2.715 6.428v164.571q0 3.714 2.715 6.429t6.428 2.714q4 0 6.572-2.572l82.285-82.285q2.572-2.572 2.572-6.572zM512 100.572v-54.857q0-3.714-2.714-6.428t-6.428-2.714h-493.714q-3.715 0-6.428 2.714t-2.715 6.428v54.857q0 3.714 2.715 6.428t6.428 2.714h493.714q3.714 0 6.428-2.714t2.714-6.428zM512 210.286v-54.857q0-3.714-2.714-6.428t-6.428-2.714h-310.857q-3.714 0-6.428 2.714t-2.714 6.428v54.857q0 3.714 2.714 6.428t6.428 2.714h310.857q3.714 0 6.428-2.714t2.714-6.428zM512 320v-54.857q0-3.714-2.714-6.428t-6.428-2.714h-310.857q-3.714 0-6.428 2.714t-2.714 6.428v54.857q0 3.714 2.714 6.429t6.428 2.714h310.857q3.714 0 6.428-2.714t2.714-6.428zM512 429.714v-54.857q0-3.714-2.714-6.428t-6.428-2.715h-493.714q-3.715 0-6.428 2.715t-2.715 6.428v54.857q0 3.715 2.715 6.429t6.428 2.714h493.714q3.714 0 6.428-2.714t2.714-6.429z" unicode="&#xf03c;"/><glyph d="M512 374.857v-310.857q0-12-11.143-16.857-3.714-1.428-7.143-1.428-7.714 0-12.857 5.428l-115.143 115.143v-47.428q0-34-24.143-58.143t-58.143-24.143h-201.143q-34 0-58.143 24.143t-24.143 58.143v201.143q0 34 24.143 58.143t58.143 24.143h201.143q34 0 58.143-24.143t24.143-58.143v-47.143l115.143 114.857q5.143 5.428 12.857 5.428 3.428 0 7.143-1.428 11.143-4.857 11.143-16.857z" unicode="&#xf03d;"/><glyph d="M182.857 310.857q0-22.857-16-38.857t-38.857-16-38.857 16-16 38.857 16 38.857 38.857 16 38.857-16 16-38.857zM475.428 201.143v-128h-402.286v54.857l91.428 91.428 45.714-45.714 146.286 146.286zM502.857 402.286h-457.143q-3.715 0-6.428-2.714t-2.715-6.428v-347.428q0-3.714 2.715-6.428t6.428-2.714h457.143q3.714 0 6.428 2.714t2.714 6.428v347.428q0 3.714-2.714 6.428t-6.428 2.714zM548.572 393.143v-347.428q0-18.857-13.428-32.286t-32.286-13.428h-457.143q-18.857 0-32.285 13.428t-13.428 32.286v347.428q0 18.857 13.428 32.286t32.285 13.428h457.143q18.857 0 32.286-13.428t13.428-32.286z" horiz-adv-x="549" unicode="&#xf03e;"/><glyph d="M103.715 36.572l26 26-67.143 67.143-26-26v-30.572h36.572v-36.572h30.572zM253.143 301.714q0 6.286-6.286 6.286-2.857 0-4.857-2l-154.857-154.857q-2-2-2-4.857 0-6.286 6.285-6.286 2.857 0 4.857 2l154.857 154.857q2 2 2 4.857zM237.714 356.572l118.857-118.857-237.714-237.714h-118.857v118.857zM432.857 329.143q0-15.143-10.572-25.714l-47.428-47.428-118.857 118.857 47.428 47.143q10.286 10.857 25.714 10.857 15.143 0 26-10.857l67.143-66.857q10.572-11.143 10.572-26z" unicode="&#xf040;"/><glyph d="M219.429 292.572q0 30.286-21.429 51.715t-51.714 21.428-51.715-21.428-21.428-51.714 21.428-51.714 51.715-21.428 51.714 21.428 21.428 51.714zM292.572 292.572q0-31.143-9.428-51.143l-104-221.143q-4.572-9.428-13.572-14.857t-19.286-5.428-19.285 5.428-13.285 14.857l-104.285 221.143q-9.428 20-9.428 51.143 0 60.571 42.857 103.428t103.428 42.857 103.428-42.857 42.857-103.428z" horiz-adv-x="293" unicode="&#xf041;"/><glyph d="M219.429 64v310.857q-42.285 0-78-20.857t-56.572-56.571-20.857-78 20.857-78 56.572-56.572 78-20.857zM438.857 219.429q0-59.714-29.428-110.143t-79.857-79.857-110.143-29.428-110.143 29.428-79.857 79.857-29.428 110.143 29.428 110.143 79.857 79.857 110.143 29.428 110.143-29.428 79.857-79.857 29.428-110.143z" unicode="&#xf042;"/><glyph d="M146.286 146.286q0 10.286-5.714 19.714-.286.286-4.428 6.428t-7.286 10.857-7.143 12.572-6 14.428q-1.143 4.572-6 4.572t-6-4.572q-2-6.572-6-14.428t-7.143-12.572-7.285-10.857-4.428-6.428q-5.715-9.428-5.715-19.714 0-15.143 10.715-25.857t25.857-10.714 25.857 10.714 10.714 25.857zM292.572 182.857q0-60.572-42.857-103.428t-103.429-42.857-103.428 42.857-42.857 103.428q0 41.428 23.143 78.572 1.715 2.571 17.857 25.857t28.857 43.143 28.428 50.857 23.715 57.572q2.572 8.572 9.715 13.428t14.571 4.857 14.714-4.857 9.572-13.428q8-26.572 23.714-57.572t28.428-50.857 28.857-43.143 17.857-25.857q23.143-36.286 23.143-78.572z" horiz-adv-x="293" unicode="&#xf043;"/><glyph d="M253.714 137.143l33.143 33.143-43.428 43.428-33.143-33.143v-16h27.429v-27.428h16zM379.428 342.857q-4.572 4.572-9.428-.286l-100-100q-4.857-4.857-.286-9.428t9.428.286l100 100q4.857 4.857.286 9.428zM402.286 173.143v-54.286q0-34-24.143-58.143t-58.143-24.143h-237.714q-34 0-58.143 24.143t-24.143 58.143v237.714q0 34 24.143 58.143t58.143 24.143h237.714q18 0 33.428-7.143 4.286-2 5.143-6.572.857-4.857-2.572-8.285l-14-14q-4-4-9.143-2.286-6.572 1.714-12.857 1.714h-237.714q-18.857 0-32.285-13.428t-13.428-32.286v-237.714q0-18.857 13.428-32.286t32.285-13.428h237.714q18.857 0 32.286 13.428t13.428 32.286v36q0 3.714 2.572 6.286l18.286 18.286q4.286 4.286 10 2t5.714-8.286zM374.857 384l82.286-82.286-192-192h-82.286v82.286zM501.714 346.286l-26.286-26.285-82.286 82.285 26.286 26.286q8 8 19.428 8t19.428-8l43.428-43.428q8-8 8-19.428t-8-19.428z" unicode="&#xf044;"/><glyph d="M402.286 192.857v-74q0-34-24.143-58.143t-58.143-24.143h-237.714q-34 0-58.143 24.143t-24.143 58.143v237.714q0 34 24.143 58.143t58.143 24.143h72.857q3.714 0 6.429-2.715t2.714-6.428q0-7.714-7.428-9.143-22-7.429-38-17.143-2.857-1.143-4.572-1.143h-32q-18.857 0-32.285-13.428t-13.428-32.286v-237.714q0-18.857 13.428-32.286t32.285-13.428h237.714q18.857 0 32.286 13.428t13.428 32.286v61.143q0 5.428 5.143 8.286 8 3.714 15.428 10.572 4.572 4.572 10 2.286 6-2.572 6-8.286zM470 334.572l-109.714-109.714q-5.143-5.428-12.857-5.428-3.428 0-7.143 1.428-11.143 4.857-11.143 16.857v54.857h-45.714q-92.286 0-125.143-37.428-34-39.143-21.143-135.143.857-6.572-5.714-9.714-2.286-.572-3.428-.572-4.572 0-7.428 3.714-2.857 4-6 8.857t-11.285 19.572-14.143 28.428-11 32.572-5 34.857q0 14 1 26t4 25.715 8 25.143 13.428 23.286 19.572 21.143 27 17.572 35.572 13.857 45.572 8.714 56.143 3.143h45.714v54.857q0 12 11.143 16.857 3.714 1.429 7.143 1.429 7.428 0 12.857-5.429l109.714-109.714q5.428-5.428 5.428-12.857t-5.428-12.857z" horiz-adv-x="476" unicode="&#xf045;"/><glyph d="M402.286 209.714v-90.857q0-34-24.143-58.143t-58.143-24.143h-237.714q-34 0-58.143 24.143t-24.143 58.143v237.714q0 34 24.143 58.143t58.143 24.143h237.714q18 0 33.428-7.143 4.286-2 5.143-6.572.857-4.857-2.572-8.285l-14-14q-2.857-2.857-6.572-2.857-.857 0-2.572.572-6.572 1.714-12.857 1.714h-237.714q-18.857 0-32.285-13.428t-13.428-32.286v-237.714q0-18.857 13.428-32.286t32.285-13.428h237.714q18.857 0 32.286 13.428t13.428 32.286v72.572q0 3.714 2.572 6.286l18.286 18.286q2.857 2.857 6.572 2.857 1.714 0 3.428-.857 5.714-2.286 5.714-8.286zM468.286 349.429l-232.571-232.572q-6.857-6.857-16.285-6.857t-16.286 6.857l-122.857 122.857q-6.857 6.857-6.857 16.286t6.857 16.286l31.428 31.428q6.857 6.857 16.285 6.857t16.285-6.857l75.143-75.143 184.857 184.857q6.857 6.857 16.286 6.857t16.286-6.857l31.428-31.429q6.857-6.857 6.857-16.285t-6.857-16.286z" horiz-adv-x="476" unicode="&#xf046;"/><glyph d="M512 219.429q0-7.428-5.428-12.857l-73.143-73.143q-5.428-5.428-12.857-5.428t-12.857 5.428-5.428 12.857v36.572h-109.714v-109.714h36.572q7.428 0 12.857-5.428t5.428-12.857-5.428-12.857l-73.143-73.143q-5.428-5.428-12.857-5.428t-12.857 5.428l-73.143 73.143q-5.428 5.428-5.428 12.857t5.428 12.857 12.857 5.428h36.571v109.714h-109.715v-36.572q0-7.428-5.428-12.857t-12.857-5.428-12.857 5.428l-73.143 73.143q-5.428 5.428-5.428 12.857t5.428 12.857l73.143 73.143q5.428 5.428 12.857 5.428t12.857-5.428 5.428-12.857v-36.571h109.715v109.714h-36.572q-7.428 0-12.857 5.428t-5.429 12.857 5.428 12.857l73.143 73.143q5.429 5.428 12.857 5.428t12.857-5.428l73.143-73.143q5.428-5.428 5.428-12.857t-5.428-12.857-12.857-5.428h-36.572v-109.714h109.714v36.572q0 7.428 5.428 12.857t12.857 5.429 12.857-5.428l73.143-73.143q5.428-5.428 5.428-12.857z" unicode="&#xf047;"/><glyph d="M279.714 435.143q5.428 5.428 9.143 3.714t3.714-9.143v-420.572q0-7.428-3.714-9.143t-9.143 3.714l-202.857 202.857q-2.572 2.572-3.715 5.428v-193.714q0-7.428-5.428-12.857t-12.857-5.428h-36.572q-7.428 0-12.857 5.428t-5.428 12.857v402.286q0 7.428 5.428 12.857t12.857 5.429h36.572q7.428 0 12.857-5.429t5.428-12.857v-193.714q1.143 3.143 3.715 5.428z" horiz-adv-x="293" unicode="&#xf048;"/><glyph d="M499.143 435.143q5.428 5.428 9.143 3.714t3.715-9.143v-420.572q0-7.428-3.714-9.143t-9.143 3.714l-202.857 202.857q-2.572 2.572-3.714 5.428v-202.857q0-7.428-3.714-9.143t-9.143 3.714l-202.857 202.857q-2.572 2.572-3.715 5.428v-193.714q0-7.428-5.428-12.857t-12.857-5.428h-36.572q-7.428 0-12.857 5.428t-5.428 12.857v402.286q0 7.428 5.428 12.857t12.857 5.429h36.572q7.428 0 12.857-5.429t5.428-12.857v-193.714q1.143 3.143 3.715 5.428l202.857 202.857q5.428 5.428 9.143 3.715t3.714-9.143v-202.857q1.143 3.143 3.714 5.428z" unicode="&#xf049;"/><glyph d="M462.572 435.143q5.428 5.428 9.143 3.714t3.714-9.143v-420.572q0-7.428-3.714-9.143t-9.143 3.714l-202.857 202.857q-2.286 2.572-3.714 5.428v-202.857q0-7.428-3.714-9.143t-9.143 3.714l-202.857 202.857q-5.428 5.428-5.428 12.857t5.428 12.857l202.857 202.857q5.429 5.429 9.143 3.714t3.714-9.143v-202.857q1.428 3.143 3.714 5.428z" horiz-adv-x="476" unicode="&#xf04a;"/><glyph d="M395.428 210.572l-379.428-210.857q-6.572-3.714-11.286-.857t-4.715 10.286v420.572q0 7.428 4.715 10.285t11.286-.857l379.428-210.857q6.572-3.714 6.572-8.857t-6.572-8.857z" horiz-adv-x="403" unicode="&#xf04b;"/><glyph d="M438.857 420.572v-402.286q0-7.428-5.428-12.857t-12.857-5.428h-146.286q-7.428 0-12.857 5.428t-5.428 12.857v402.286q0 7.428 5.428 12.857t12.857 5.429h146.286q7.428 0 12.857-5.429t5.428-12.857zM182.857 420.572v-402.286q0-7.428-5.429-12.857t-12.857-5.428h-146.286q-7.428 0-12.857 5.428t-5.428 12.857v402.286q0 7.428 5.428 12.857t12.857 5.429h146.286q7.429 0 12.857-5.429t5.428-12.857z" unicode="&#xf04c;"/><glyph d="M438.857 420.572v-402.286q0-7.428-5.428-12.857t-12.857-5.428h-402.286q-7.428 0-12.857 5.428t-5.428 12.857v402.286q0 7.428 5.428 12.857t12.857 5.429h402.286q7.428 0 12.857-5.429t5.428-12.857z" unicode="&#xf04d;"/><glyph d="M12.857 3.714q-5.428-5.428-9.143-3.714t-3.715 9.143v420.572q0 7.428 3.715 9.143t9.143-3.714l202.857-202.857q2.286-2.286 3.714-5.428v202.857q0 7.428 3.714 9.143t9.143-3.715l202.857-202.857q5.428-5.428 5.428-12.857t-5.428-12.857l-202.857-202.857q-5.429-5.428-9.143-3.714t-3.714 9.143v202.857q-1.429-2.857-3.714-5.428z" horiz-adv-x="476" unicode="&#xf04e;"/><glyph d="M12.857 3.714q-5.428-5.428-9.143-3.714t-3.715 9.143v420.572q0 7.428 3.715 9.143t9.143-3.714l202.857-202.857q2.286-2.286 3.714-5.428v202.857q0 7.428 3.714 9.143t9.143-3.715l202.857-202.857q2.286-2.286 3.714-5.428v193.714q0 7.428 5.428 12.857t12.857 5.429h36.572q7.428 0 12.857-5.429t5.428-12.857v-402.286q0-7.428-5.428-12.857t-12.857-5.428h-36.572q-7.428 0-12.857 5.428t-5.428 12.857v193.714q-1.428-2.857-3.714-5.428l-202.857-202.857q-5.429-5.428-9.143-3.714t-3.714 9.143v202.857q-1.429-2.857-3.714-5.428z" unicode="&#xf050;"/><glyph d="M12.857 3.714q-5.428-5.428-9.143-3.714t-3.715 9.143v420.572q0 7.428 3.715 9.143t9.143-3.714l202.857-202.857q2.286-2.286 3.714-5.428v193.714q0 7.428 5.428 12.857t12.857 5.429h36.571q7.428 0 12.857-5.429t5.428-12.857v-402.286q0-7.428-5.428-12.857t-12.857-5.428h-36.572q-7.428 0-12.857 5.428t-5.429 12.857v193.714q-1.429-2.857-3.714-5.428z" horiz-adv-x="293" unicode="&#xf051;"/><glyph d="M4 195.714l202.857 202.857q5.429 5.429 12.857 5.429t12.857-5.429l202.857-202.857q5.428-5.428 3.714-9.143t-9.143-3.714h-420.572q-7.428 0-9.143 3.714t3.715 9.143zM420.857 36.572h-402.286q-7.428 0-12.857 5.428t-5.428 12.857v73.143q0 7.428 5.428 12.857t12.857 5.428h402.286q7.428 0 12.857-5.428t5.428-12.857v-73.143q0-7.428-5.428-12.857t-12.857-5.428z" horiz-adv-x="440" unicode="&#xf052;"/><glyph d="M334.572 389.429l-151.714-151.714 151.714-151.714q5.428-5.428 5.428-12.857t-5.428-12.857l-47.428-47.428q-5.428-5.428-12.857-5.428t-12.857 5.428l-212 212q-5.428 5.428-5.428 12.857t5.428 12.857l212 212q5.428 5.428 12.857 5.428t12.857-5.428l47.428-47.429q5.428-5.428 5.428-12.857t-5.428-12.857z" horiz-adv-x="366" unicode="&#xf053;"/><glyph d="M316.286 224.857l-212-212q-5.428-5.428-12.857-5.428t-12.857 5.428l-47.428 47.428q-5.428 5.428-5.428 12.857t5.428 12.857l151.714 151.714-151.714 151.714q-5.428 5.428-5.428 12.857t5.428 12.857l47.428 47.428q5.428 5.428 12.857 5.428t12.857-5.428l212-212q5.428-5.428 5.428-12.857t-5.428-12.857z" horiz-adv-x="366" unicode="&#xf054;"/><glyph d="M347.428 201.143v36.572q0 7.428-5.428 12.857t-12.857 5.429h-73.143v73.143q0 7.429-5.428 12.857t-12.857 5.428h-36.571q-7.428 0-12.857-5.428t-5.429-12.857v-73.143h-73.143q-7.428 0-12.857-5.428t-5.428-12.857v-36.571q0-7.428 5.428-12.857t12.857-5.428h73.143v-73.143q0-7.428 5.428-12.857t12.857-5.428h36.571q7.428 0 12.857 5.428t5.429 12.857v73.143h73.143q7.428 0 12.857 5.428t5.428 12.857zM438.857 219.429q0-59.714-29.428-110.143t-79.857-79.857-110.143-29.428-110.143 29.428-79.857 79.857-29.428 110.143 29.428 110.143 79.857 79.857 110.143 29.428 110.143-29.428 79.857-79.857 29.428-110.143z" unicode="&#xf055;"/><glyph d="M347.428 201.143v36.572q0 7.428-5.428 12.857t-12.857 5.429h-219.429q-7.428 0-12.857-5.428t-5.428-12.857v-36.571q0-7.428 5.428-12.857t12.857-5.428h219.429q7.428 0 12.857 5.428t5.428 12.857zM438.857 219.429q0-59.714-29.428-110.143t-79.857-79.857-110.143-29.428-110.143 29.428-79.857 79.857-29.428 110.143 29.428 110.143 79.857 79.857 110.143 29.428 110.143-29.428 79.857-79.857 29.428-110.143z" unicode="&#xf056;"/><glyph d="M328.286 154.857q0 7.428-5.428 12.857l-51.714 51.714 51.714 51.714q5.428 5.428 5.428 12.857 0 7.714-5.428 13.143l-25.714 25.714q-5.428 5.428-13.143 5.428-7.428 0-12.857-5.428l-51.714-51.714-51.714 51.714q-5.428 5.428-12.857 5.428-7.714 0-13.143-5.428l-25.715-25.714q-5.428-5.428-5.428-13.143 0-7.428 5.428-12.857l51.715-51.714-51.715-51.714q-5.428-5.428-5.428-12.857 0-7.714 5.428-13.143l25.715-25.714q5.428-5.428 13.143-5.428 7.429 0 12.857 5.428l51.714 51.714 51.714-51.714q5.428-5.428 12.857-5.428 7.714 0 13.143 5.428l25.714 25.714q5.428 5.428 5.428 13.143zM438.857 219.429q0-59.714-29.428-110.143t-79.857-79.857-110.143-29.428-110.143 29.428-79.857 79.857-29.428 110.143 29.428 110.143 79.857 79.857 110.143 29.428 110.143-29.428 79.857-79.857 29.428-110.143z" unicode="&#xf057;"/><glyph d="M366.857 265.714q0 8-5.143 13.143l-26 25.715q-5.428 5.428-12.857 5.428t-12.857-5.428l-116.572-116.286-64.572 64.572q-5.428 5.428-12.857 5.428t-12.857-5.428l-26-25.714q-5.143-5.143-5.143-13.143 0-7.714 5.143-12.857l103.428-103.428q5.428-5.428 12.857-5.428 7.714 0 13.143 5.428l155.143 155.143q5.143 5.143 5.143 12.857zM438.857 219.429q0-59.714-29.428-110.143t-79.857-79.857-110.143-29.428-110.143 29.428-79.857 79.857-29.428 110.143 29.428 110.143 79.857 79.857 110.143 29.428 110.143-29.428 79.857-79.857 29.428-110.143z" unicode="&#xf058;"/><glyph d="M256 82.286v54.857q0 4-2.571 6.572t-6.571 2.572h-54.857q-4 0-6.571-2.572t-2.571-6.572v-54.857q0-4 2.571-6.572t6.572-2.572h54.857q4 0 6.571 2.572t2.572 6.572zM329.143 274.286q0 25.143-15.857 46.572t-39.572 33.143-48.572 11.714q-69.428 0-106-60.857-4.285-6.857 2.285-12l37.715-28.572q2-1.714 5.428-1.714 4.572 0 7.143 3.428 15.143 19.429 24.571 26.286 9.714 6.857 24.572 6.857 13.714 0 24.428-7.428t10.714-16.857q0-10.857-5.714-17.428t-19.428-12.857q-18-8-33-24.714t-15-35.857v-10.286q0-4 2.571-6.572t6.571-2.572h54.857q4 0 6.571 2.572t2.572 6.572q0 5.428 6.143 14.143t15.572 14.143q9.143 5.143 14 8.143t13.143 10 12.714 13.714 8 17.286 3.572 23.143zM438.857 219.429q0-59.714-29.428-110.143t-79.857-79.857-110.143-29.428-110.143 29.428-79.857 79.857-29.428 110.143 29.428 110.143 79.857 79.857 110.143 29.428 110.143-29.428 79.857-79.857 29.428-110.143z" unicode="&#xf059;"/><glyph d="M292.572 82.286v45.714q0 4-2.572 6.572t-6.572 2.572h-27.428v146.286q0 4-2.571 6.572t-6.571 2.571h-91.428q-4 0-6.572-2.571t-2.571-6.572v-45.714q0-4 2.571-6.572t6.572-2.572h27.428v-91.428h-27.428q-4 0-6.572-2.572t-2.571-6.572v-45.714q0-4 2.571-6.572t6.572-2.572h128q4 0 6.572 2.572t2.572 6.572zM256 338.286v45.715q0 4-2.571 6.571t-6.571 2.572h-54.857q-4 0-6.571-2.572t-2.571-6.571v-45.715q0-4 2.571-6.571t6.572-2.572h54.857q4 0 6.571 2.572t2.572 6.572zM438.857 219.429q0-59.714-29.428-110.143t-79.857-79.857-110.143-29.428-110.143 29.428-79.857 79.857-29.428 110.143 29.428 110.143 79.857 79.857 110.143 29.428 110.143-29.428 79.857-79.857 29.428-110.143z" unicode="&#xf05a;"/><glyph d="M342 182.857h-31.143q-7.428 0-12.857 5.428t-5.428 12.857v36.572q0 7.428 5.428 12.857t12.857 5.429h31.143q-9.143 30.857-32.143 53.857t-53.857 32.143v-31.143q0-7.428-5.429-12.857t-12.857-5.428h-36.571q-7.428 0-12.857 5.428t-5.429 12.857v31.143q-30.857-9.143-53.857-32.143t-32.143-53.857h31.143q7.429 0 12.857-5.428t5.428-12.857v-36.571q0-7.428-5.428-12.857t-12.857-5.428h-31.143q9.143-30.857 32.143-53.857t53.857-32.143v31.143q0 7.428 5.428 12.857t12.857 5.428h36.571q7.428 0 12.857-5.428t5.429-12.857v-31.143q30.857 9.143 53.857 32.143t32.143 53.857zM438.857 237.714v-36.572q0-7.428-5.428-12.857t-12.857-5.428h-40.857q-10.572-46-44.143-79.572t-79.572-44.143v-40.857q0-7.428-5.428-12.857t-12.857-5.428h-36.571q-7.428 0-12.857 5.428t-5.429 12.857v40.857q-46 10.572-79.572 44.143t-44.143 79.572h-40.857q-7.428 0-12.857 5.428t-5.428 12.857v36.572q0 7.428 5.428 12.857t12.857 5.429h40.857q10.572 46 44.143 79.572t79.572 44.143v40.857q0 7.428 5.428 12.857t12.857 5.429h36.571q7.428 0 12.857-5.429t5.429-12.857v-40.857q46-10.572 79.572-44.143t44.143-79.572h40.857q7.428 0 12.857-5.428t5.428-12.857z" unicode="&#xf05b;"/><glyph d="M313.428 167.143l-41.714-41.714q-2.857-2.857-6.572-2.857t-6.572 2.857l-39.143 39.143-39.143-39.143q-2.857-2.857-6.572-2.857t-6.572 2.857l-41.715 41.714q-2.857 2.857-2.857 6.572t2.857 6.572l39.143 39.143-39.143 39.143q-2.857 2.857-2.857 6.572t2.857 6.572l41.715 41.714q2.857 2.857 6.572 2.857t6.572-2.857l39.143-39.143 39.143 39.143q2.857 2.857 6.572 2.857t6.572-2.857l41.714-41.714q2.857-2.857 2.857-6.572t-2.857-6.572l-39.143-39.143 39.143-39.143q2.857-2.857 2.857-6.572t-2.857-6.572zM374.857 219.429q0 42.286-20.857 78t-56.572 56.572-78 20.857-78-20.857-56.572-56.572-20.857-78 20.857-78 56.572-56.572 78-20.857 78 20.857 56.572 56.572 20.857 78zM438.857 219.429q0-59.714-29.428-110.143t-79.857-79.857-110.143-29.428-110.143 29.428-79.857 79.857-29.428 110.143 29.428 110.143 79.857 79.857 110.143 29.428 110.143-29.428 79.857-79.857 29.428-110.143z" unicode="&#xf05c;"/><glyph d="M334.572 243.143l-120.572-120.572q-5.428-5.428-12.857-5.428t-12.857 5.428l-84 84q-5.428 5.428-5.428 12.857t5.428 12.857l29.143 29.143q5.429 5.428 12.857 5.428t12.857-5.428l42-42 78.571 78.572q5.428 5.428 12.857 5.428t12.857-5.428l29.143-29.143q5.428-5.428 5.428-12.857t-5.428-12.857zM374.857 219.429q0 42.286-20.857 78t-56.572 56.572-78 20.857-78-20.857-56.572-56.572-20.857-78 20.857-78 56.572-56.572 78-20.857 78 20.857 56.572 56.572 20.857 78zM438.857 219.429q0-59.714-29.428-110.143t-79.857-79.857-110.143-29.428-110.143 29.428-79.857 79.857-29.428 110.143 29.428 110.143 79.857 79.857 110.143 29.428 110.143-29.428 79.857-79.857 29.428-110.143z" unicode="&#xf05d;"/><glyph d="M374.857 220.286q0 46-24.857 84.286l-215.429-215.143q39.143-25.428 84.857-25.428 31.714 0 60.428 12.428t49.572 33.286 33.143 49.857 12.286 60.714zM89.428 134.857l215.714 215.428q-38.572 26-85.714 26-42.286 0-78-20.857t-56.572-56.857-20.857-78.285q0-46.286 25.428-85.428zM438.857 220.286q0-44.857-17.428-85.714t-46.714-70.286-70-46.857-85.286-17.428-85.286 17.428-70 46.857-46.715 70.286-17.428 85.714 17.428 85.572 46.715 70.143 70 46.857 85.286 17.428 85.286-17.428 70-46.857 46.714-70.143 17.428-85.572z" unicode="&#xf05e;"/><glyph d="M438.857 219.429v-36.572q0-15.143-9.286-25.857t-24.143-10.714h-201.143l83.715-84q10.857-10.286 10.857-25.714t-10.857-25.714l-21.428-21.714q-10.572-10.572-25.714-10.572-14.857 0-26 10.572l-186 186.286q-10.572 10.572-10.572 25.714 0 14.857 10.572 26l186 185.714q10.857 10.857 26 10.857 14.857 0 25.714-10.857l21.428-21.143q10.857-10.857 10.857-26t-10.857-26l-83.714-83.714h201.143q14.857 0 24.143-10.714t9.286-25.857z" unicode="&#xf060;"/><glyph d="M420.572 201.143q0-15.428-10.572-26l-186-186q-11.143-10.572-26-10.572-14.572 0-25.714 10.572l-21.428 21.428q-10.857 10.857-10.857 26t10.857 26l83.714 83.714h-201.143q-14.857 0-24.143 10.714t-9.286 25.857v36.572q0 15.143 9.286 25.857t24.143 10.714h201.143l-83.714 84q-10.857 10.286-10.857 25.714t10.857 25.715l21.428 21.428q10.857 10.857 25.714 10.857 15.143 0 26-10.857l186-186q10.572-10 10.572-25.714z" unicode="&#xf061;"/><glyph d="M460.286 198q0-14.572-10.572-25.714l-21.428-21.428q-10.857-10.857-26-10.857-15.428 0-25.714 10.857l-84 83.714v-201.143q0-14.857-10.714-24.143t-25.857-9.286h-36.571q-15.143 0-25.857 9.286t-10.714 24.143v201.143l-84-83.714q-10.285-10.857-25.715-10.857t-25.715 10.857l-21.428 21.428q-10.857 10.857-10.857 25.714 0 15.143 10.857 26l186 186q10 10.571 25.714 10.571 15.428 0 26-10.571l186-186q10.572-11.143 10.572-26z" horiz-adv-x="476" unicode="&#xf062;"/><glyph d="M460.286 237.714q0-15.143-10.572-25.714l-186-186.286q-11.143-10.572-26-10.572-15.143 0-25.714 10.572l-186 186.286q-10.857 10.286-10.857 25.714 0 15.143 10.857 26l21.143 21.428q11.143 10.572 26 10.572 15.143 0 25.715-10.572l84-84v201.143q0 14.857 10.857 25.715t25.715 10.857h36.572q14.857 0 25.714-10.857t10.857-25.715v-201.143l84 84q10.572 10.572 25.714 10.572 14.857 0 26-10.572l21.428-21.428q10.572-11.143 10.572-26z" horiz-adv-x="476" unicode="&#xf063;"/><glyph d="M512 292.572q0-7.428-5.428-12.857l-146.286-146.286q-5.428-5.428-12.857-5.428t-12.857 5.428-5.428 12.857v73.143h-64q-28 0-50.143-1.714t-44-6.143-38-12.143-30.143-19.857-22.857-28.857-13.857-39.572-5-51.714q0-15.714 1.428-35.143 0-1.714.715-6.714t.715-7.572q0-4.286-2.428-7.143t-6.715-2.857q-4.572 0-8 4.857-2 2.572-3.715 6.286t-3.857 8.572-3 6.857q-36.285 81.428-36.285 128.857 0 56.857 15.143 95.143 46.285 115.143 250 115.143h64v73.143q0 7.428 5.428 12.857t12.857 5.428 12.857-5.428l146.286-146.286q5.429-5.428 5.429-12.857z" unicode="&#xf064;"/><glyph d="M215.714 173.714q0-3.714-2.857-6.572l-94.857-94.857 41.143-41.143q5.429-5.428 5.429-12.857t-5.428-12.857-12.857-5.428h-128q-7.428 0-12.857 5.428t-5.428 12.857v128q0 7.428 5.428 12.857t12.857 5.428 12.857-5.428l41.143-41.143 94.857 94.857q2.857 2.857 6.572 2.857t6.572-2.857l32.572-32.572q2.857-2.857 2.857-6.572zM438.857 420.572v-128q0-7.428-5.428-12.857t-12.857-5.428-12.857 5.428l-41.143 41.143-94.857-94.857q-2.857-2.857-6.572-2.857t-6.572 2.857l-32.572 32.572q-2.857 2.857-2.857 6.572t2.857 6.572l94.857 94.857-41.143 41.143q-5.428 5.428-5.428 12.857t5.428 12.857 12.857 5.428h128q7.428 0 12.857-5.428t5.428-12.857z" unicode="&#xf065;"/><glyph d="M219.429 201.143v-128q0-7.428-5.429-12.857t-12.857-5.428-12.857 5.428l-41.143 41.143-94.857-94.857q-2.857-2.857-6.572-2.857t-6.572 2.857l-32.572 32.572q-2.857 2.857-2.857 6.572t2.857 6.572l94.857 94.857-41.143 41.143q-5.428 5.428-5.428 12.857t5.428 12.857 12.857 5.428h128q7.428 0 12.857-5.428t5.429-12.857zM435.143 393.143q0-3.714-2.857-6.572l-94.857-94.857 41.143-41.143q5.428-5.428 5.428-12.857t-5.428-12.857-12.857-5.428h-128q-7.428 0-12.857 5.428t-5.429 12.857v128q0 7.428 5.428 12.857t12.857 5.428 12.857-5.428l41.143-41.143 94.857 94.857q2.857 2.857 6.572 2.857t6.572-2.857l32.572-32.572q2.857-2.857 2.857-6.572z" unicode="&#xf066;"/><glyph d="M402.286 265.143v-54.857q0-11.428-8-19.428t-19.428-8h-118.857v-118.857q0-11.428-8-19.428t-19.428-8h-54.857q-11.429 0-19.429 8t-8 19.428v118.857h-118.857q-11.428 0-19.428 8t-8 19.428v54.857q0 11.429 8 19.429t19.428 8h118.857v118.857q0 11.429 8 19.429t19.428 8h54.857q11.429 0 19.429-8t8-19.429v-118.857h118.857q11.428 0 19.428-8t8-19.428z" horiz-adv-x="403" unicode="&#xf067;"/><glyph d="M402.286 265.143v-54.857q0-11.428-8-19.428t-19.428-8h-347.428q-11.428 0-19.428 8t-8 19.428v54.857q0 11.429 8 19.429t19.428 8h347.428q11.428 0 19.428-8t8-19.428z" horiz-adv-x="403" unicode="&#xf068;"/><glyph d="M423.428 175.429q13.143-7.428 17-22.143t-3.572-27.857l-18.286-31.428q-7.428-13.143-22.143-17t-27.857 3.572l-76 43.714v-87.714q0-14.857-10.857-25.714t-25.714-10.857h-36.572q-14.857 0-25.714 10.857t-10.857 25.714v87.714l-76-43.714q-13.143-7.428-27.857-3.572t-22.143 17l-18.285 31.428q-7.428 13.143-3.572 27.857t17 22.143l76 44-76 44q-13.143 7.428-17 22.143t3.572 27.857l18.285 31.428q7.428 13.143 22.143 17t27.857-3.572l76-43.714v87.714q0 14.857 10.857 25.714t25.714 10.857h36.572q14.857 0 25.714-10.857t10.857-25.714v-87.714l76 43.714q13.143 7.428 27.857 3.572t22.143-17l18.286-31.428q7.428-13.143 3.572-27.857t-17-22.143l-76-44z" horiz-adv-x="476" unicode="&#xf069;"/><glyph d="M219.429 438.857q59.715 0 110.143-29.428t79.857-79.857 29.428-110.143-29.428-110.143-79.857-79.857-110.143-29.428-110.143 29.428-79.857 79.857-29.428 110.143 29.428 110.143 79.857 79.857 110.143 29.428zM256 82.572v54.286q0 4-2.571 6.714t-6.286 2.714h-54.857q-3.714 0-6.572-2.857t-2.857-6.572v-54.286q0-3.714 2.857-6.572t6.572-2.857h54.857q3.714 0 6.286 2.714t2.571 6.714zM255.429 180.857l5.143 177.428q0 3.428-2.857 5.143-2.857 2.285-6.857 2.285h-62.857q-4 0-6.857-2.285-2.857-1.715-2.857-5.143l4.857-177.428q0-2.857 2.857-5t6.857-2.143h52.857q4 0 6.714 2.143t3 5z" unicode="&#xf06a;"/><glyph d="M265.143 88v204.571h-91.428v-204.571q0-7.143 5.143-11t13.143-3.857h54.857q8 0 13.143 3.857t5.143 11zM134.857 329.143h55.715l-36 46q-7.428 8.857-19.714 8.857-11.428 0-19.428-8t-8-19.428 8-19.428 19.428-8zM331.428 356.572q0 11.429-8 19.429t-19.428 8q-12.286 0-19.714-8.857l-35.714-46h55.428q11.428 0 19.428 8t8 19.428zM438.857 283.429v-91.428q0-4-2.572-6.572t-6.572-2.572h-27.428v-118.857q0-11.428-8-19.428t-19.428-8h-310.857q-11.428 0-19.428 8t-8 19.428v118.857h-27.428q-4 0-6.572 2.572t-2.571 6.572v91.428q0 4 2.571 6.572t6.572 2.571h125.715q-26.572 0-45.285 18.715t-18.715 45.286 18.715 45.285 45.285 18.715q30.572 0 48-22l36.572-47.143 36.572 47.143q17.428 22 48 22 26.572 0 45.286-18.715t18.714-45.285-18.714-45.286-45.286-18.714h125.714q4 0 6.572-2.572t2.572-6.571z" unicode="&#xf06b;"/><glyph d="M365.714 274.286q0 7.429-5.428 12.857t-12.857 5.428q-49.143 0-90.857-14.143t-74.143-38.285-67.285-62.714q-5.428-6-5.428-12.857 0-7.428 5.428-12.857t12.857-5.428q6.857 0 12.857 5.428 7.714 6.857 21.143 20.286t19.143 18.857q39.143 35.428 76.715 50.286t89.572 14.857q7.428 0 12.857 5.429t5.428 12.857zM512 330.857q0-27.143-5.714-55.143-13.143-64-52.714-109.428t-102.143-76.572q-61.143-30.857-125.143-30.857-42.285 0-81.715 13.428-4.286 1.428-25.143 12t-27.428 10.572q-4.572 0-11.285-9.143t-12.857-20-15-20-17.143-9.143q-8.572 0-14.572 3.143t-8.857 6.857-7.715 12q-.571 1.143-1.715 3.143t-1.571 2.857-.857 2.714-.428 3.857q0 10 8.857 21t19.428 18.714 19.428 16 8.857 13.714q0 1.143-4 10.857t-4.572 12.572q-2.572 14.572-2.572 29.714 0 32.857 12.428 62.857t34 52.715 48.715 39.714 58.286 27.286q15.714 5.143 41.428 7.286t51.286 2.571 51 1.714 46.714 6.857 32.428 16.143l8.428 8.429t8.428 8 7.714 5.714 10.428 4.572 12.428 1.285q11.143 0 20.143-13.143t13.572-32 6.857-35.428 2.286-27.428z" unicode="&#xf06c;"/><glyph d="M402.286-9.143v-18.286q0-3.714-2.714-6.429t-6.428-2.714h-384q-3.715 0-6.428 2.714t-2.715 6.429v18.286q0 3.714 2.715 6.428t6.428 2.714h384q3.714 0 6.428-2.714t2.714-6.428zM329.143 292.572q0-22.285-7-41.143t-18.286-32.143-25-25.143-27.428-22.143-25-20.572-18.286-23.286-7-27.572q0-27.428 19.143-64l-1.143.286.286-.286q-25.714 11.714-45.714 23.714t-39.572 28.572-32.428 35-20.715 43-7.857 52.572q0 22.286 7 41.143t18.285 32.143 25 25.143 27.428 22.143 25 20.572 18.286 23.285 7 27.572q0 26.857-18.857 64l.857-.286-.286.286q25.714-11.714 45.714-23.714t39.572-28.572 32.428-35 20.714-43 7.857-52.572z" horiz-adv-x="403" unicode="&#xf06d;"/><glyph d="M475.428 201.143q-43.428 67.428-108.857 100.857 17.428-29.714 17.428-64.285 0-52.857-37.572-90.428t-90.428-37.572-90.428 37.572-37.572 90.428q0 34.572 17.428 64.286-65.428-33.428-108.857-100.857 38-58.572 95.285-93.286t124.143-34.714 124.143 34.714 95.286 93.286zM269.714 310.857q0 5.714-4 9.714t-9.714 4q-35.714 0-61.286-25.571t-25.572-61.286q0-5.714 4-9.714t9.714-4 9.714 4 4 9.714q0 24.572 17.428 42t42 17.428q5.714 0 9.714 4t4 9.714zM512 201.143q0-9.714-5.714-19.714-40-65.714-107.572-105.286t-142.714-39.572-142.714 39.714-107.572 105.143q-5.715 10-5.715 19.714t5.715 19.714q40 65.428 107.572 105.143t142.714 39.714 142.714-39.714 107.572-105.143q5.714-10 5.714-19.714z" unicode="&#xf06e;"/><glyph d="M158.571 94l22.285 40.286q-24.857 18-38.857 45.428t-14 58q0 34.572 17.429 64.286-65.428-33.428-108.857-100.857 47.715-73.714 122-107.143zM269.714 310.857q0 5.714-4 9.714t-9.714 4q-35.714 0-61.286-25.571t-25.572-61.286q0-5.714 4-9.714t9.714-4 9.714 4 4 9.714q0 24.572 17.428 42t42 17.428q5.714 0 9.714 4t4 9.714zM373.428 365.429q0-2-.286-2.572-30-53.714-90-161.714t-90.286-162l-14-25.428q-2.857-4.572-8-4.572-3.429 0-38.286 20-4.572 2.857-4.572 8 0 3.428 12.572 24.857-40.857 18.572-75.285 49.428t-59.572 70q-5.715 8.857-5.715 19.714t5.715 19.714q43.715 67.143 108.572 106t141.714 38.857q25.428 0 51.428-4.857l15.428 27.714q2.857 4.572 8 4.572 1.428 0 5.143-1.714t8.857-4.429 9.428-5.286 9-5.285 5.572-3.286q4.572-2.857 4.572-7.714zM384 237.714q0-39.714-22.572-72.428t-59.714-47l80 143.428q2.286-12.857 2.286-24zM512 201.143q0-10-5.714-19.714-11.143-18.286-31.143-41.428-42.857-49.143-99.286-76.286t-119.857-27.143l21.143 37.714q60.572 5.143 112.143 39.143t86.143 87.714q-32.857 51.143-80.572 84l18 32q27.143-18.286 52.143-43.714t41.286-52.572q5.714-9.714 5.714-19.714z" unicode="&#xf070;"/><glyph d="M292.572 82.572v54.286q0 4-2.714 6.714t-6.428 2.714h-54.857q-3.714 0-6.429-2.714t-2.714-6.714v-54.286q0-4 2.714-6.714t6.428-2.714h54.857q3.714 0 6.428 2.714t2.714 6.714zM292 189.429l5.143 131.143q0 3.429-2.857 5.429-3.714 3.143-6.857 3.143h-62.857q-3.143 0-6.857-3.143-2.857-2-2.857-6l4.857-130.572q0-2.857 2.857-4.714t6.857-1.857h52.857q4 0 6.714 1.857t3 4.714zM288 456.286l219.428-402.285q10-18-.572-36-4.857-8.286-13.286-13.143t-18.143-4.857h-438.857q-9.715 0-18.143 4.857t-13.286 13.143q-10.572 18-.572 36l219.429 402.286q4.857 8.857 13.429 14t18.572 5.143 18.572-5.143 13.428-14z" unicode="&#xf071;"/><glyph d="M393.143 429.714q12.572-14.857 3.428-42.285t-30.857-49.143l-46-46 45.714-198.857q1.428-5.428-3.428-9.428l-36.572-27.428q-2-1.714-5.428-1.714-1.143 0-2 .286-4.286.857-6 4.572l-79.714 145.143-74-74 15.143-55.428q1.429-4.857-2.286-8.857l-27.429-27.428q-2.571-2.572-6.572-2.572h-.571q-4.286.572-6.857 3.714l-54 72-72 54q-3.143 2-3.715 6.572-.285 3.714 2.571 7.143l27.428 27.714q2.572 2.572 6.572 2.572 1.715 0 2.285-.286l55.428-15.143 74 74-145.143 79.714q-4 2.286-4.857 6.857-.572 4.571 2.572 7.714l36.572 36.571q4 3.715 8.572 2.286l190-45.428 45.714 45.714q21.714 21.715 49.143 30.857t42.286-3.429z" horiz-adv-x="403" unicode="&#xf072;"/><glyph d="M36.572 0h82.285v82.286h-82.285v-82.286zM137.143 0h91.429v82.286h-91.428v-82.286zM36.572 100.572h82.285v91.428h-82.285v-91.428zM137.143 100.572h91.429v91.428h-91.428v-91.428zM36.572 210.286h82.285v82.286h-82.285v-82.286zM246.857 0h91.429v82.286h-91.428v-82.286zM137.143 210.286h91.429v82.286h-91.428v-82.286zM356.572 0h82.286v82.286h-82.286v-82.286zM246.857 100.572h91.429v91.428h-91.428v-91.428zM146.286 347.429v82.285q0 3.715-2.714 6.429t-6.428 2.714h-18.285q-3.715 0-6.428-2.714t-2.715-6.429v-82.285q0-3.714 2.715-6.428t6.428-2.714h18.285q3.714 0 6.428 2.714t2.714 6.428zM356.572 100.572h82.286v91.428h-82.286v-91.428zM246.857 210.286h91.429v82.286h-91.428v-82.286zM356.572 210.286h82.286v82.286h-82.286v-82.286zM365.714 347.429v82.285q0 3.715-2.714 6.429t-6.428 2.714h-18.286q-3.714 0-6.428-2.714t-2.714-6.429v-82.285q0-3.714 2.714-6.428t6.428-2.714h18.286q3.714 0 6.428 2.714t2.714 6.428zM475.428 365.714v-365.714q0-14.857-10.857-25.714t-25.714-10.857h-402.286q-14.857 0-25.715 10.857t-10.857 25.714v365.714q0 14.857 10.857 25.714t25.715 10.857h36.572v27.428q0 18.857 13.428 32.285t32.285 13.429h18.285q18.857 0 32.285-13.429t13.428-32.285v-27.428h109.714v27.428q0 18.857 13.428 32.285t32.286 13.429h18.286q18.857 0 32.286-13.429t13.428-32.285v-27.428h36.572q14.857 0 25.714-10.857t10.857-25.714z" horiz-adv-x="476" unicode="&#xf073;"/><glyph d="M190.286 338q-17.143-26.285-39.143-78-6.286 12.857-10.571 20.715t-11.572 18.143-14.572 16.143-18 10-23.285 4.143h-64q-4 0-6.572 2.572t-2.571 6.572v54.857q0 4 2.571 6.572t6.572 2.572h64q71.429 0 117.143-64.286zM512 109.714q0-4-2.572-6.572l-91.428-91.428q-2.572-2.572-6.572-2.572-3.714 0-6.428 2.714t-2.714 6.428v54.857q-9.143 0-24.286-.143t-23.143-.286-20.857.286-20.286 1.428-18.286 3-18 5.286-16.572 8.143-16.857 11.428-15.714 15.286-16 19.857q16.857 26.572 38.857 78 6.286-12.857 10.572-20.714t11.572-18.143 14.572-16.143 18-10 23.286-4.143h73.143v54.857q0 4 2.572 6.572t6.572 2.572q3.428 0 6.857-2.857l91.143-91.143q2.572-2.572 2.572-6.572zM512 365.714q0-4-2.572-6.571l-91.428-91.428q-2.572-2.572-6.572-2.572-3.714 0-6.428 2.714t-2.714 6.429v54.857h-73.143q-13.714 0-24.857-4.286t-19.714-12.857-14.572-17.572-12.857-22.143q-9.143-17.714-22.286-48.857-8.286-18.857-14.143-31.714t-15.429-30-18.286-28.572-21.143-23.714-25.715-19.572-30.428-12-36.572-4.714h-64q-4 0-6.572 2.572t-2.571 6.572v54.857q0 4 2.571 6.572t6.572 2.572h64q13.715 0 24.857 4.286t19.715 12.857 14.572 17.572 12.857 22.143q9.143 17.714 22.286 48.857 8.286 18.857 14.143 31.715t15.429 30 18.286 28.572 21.143 23.714 25.715 19.572 30.428 12 36.572 4.714h73.143v54.857q0 4 2.572 6.572t6.572 2.572q3.428 0 6.857-2.857l91.143-91.143q2.572-2.572 2.572-6.572z" unicode="&#xf074;"/><glyph d="M512 219.429q0-49.714-34.286-91.857t-93.143-66.572-128.572-24.428q-20 0-41.428 2.286-56.572-50-131.429-69.143-14-4-32.572-6.286-4.857-.571-8.715 2.572t-5 8.286v.286q-.857 1.143-.143 3.428t.572 2.857 1.285 2.714l1.715 2.572t2 2.428 2.285 2.572q2 2.286 8.857 9.857t9.857 10.857 8.857 11.286 9.285 14.572 7.715 16.857 7.428 21.714q-44.857 25.428-70.715 62.857t-25.857 80.286q0 37.143 20.285 71t54.572 58.428 81.714 39 99.428 14.428q69.714 0 128.571-24.428t93.143-66.572 34.286-91.857z" unicode="&#xf075;"/><glyph d="M438.857 237.714v-36.572q0-57.428-28.143-103.428t-78.286-71.857-113-25.857-113 25.857-78.285 71.857-28.143 103.428v36.572q0 7.428 5.428 12.857t12.857 5.429h109.715q7.428 0 12.857-5.428t5.429-12.857v-36.571q0-14.857 6.714-25.714t15.286-16.286 20.286-8.572 18.286-3.714 12.572-.572 12.572.572 18.286 3.714 20.286 8.572 15.286 16.286 6.714 25.714v36.572q0 7.428 5.428 12.857t12.857 5.429h109.714q7.428 0 12.857-5.428t5.428-12.857zM146.286 420.572v-109.714q0-7.428-5.428-12.857t-12.857-5.428h-109.715q-7.428 0-12.857 5.428t-5.428 12.857v109.714q0 7.429 5.428 12.857t12.857 5.428h109.715q7.429 0 12.857-5.428t5.428-12.857zM438.857 420.572v-109.714q0-7.428-5.428-12.857t-12.857-5.428h-109.714q-7.428 0-12.857 5.428t-5.428 12.857v109.714q0 7.429 5.428 12.857t12.857 5.428h109.714q7.428 0 12.857-5.428t5.428-12.857z" unicode="&#xf076;"/><glyph d="M480.857 95.143l-47.428-47.143q-5.428-5.428-12.857-5.428t-12.857 5.428l-151.714 151.714-151.714-151.714q-5.428-5.428-12.857-5.428t-12.857 5.428l-47.428 47.143q-5.428 5.428-5.428 13t5.428 13l212 211.714q5.428 5.428 12.857 5.428t12.857-5.428l212-211.714q5.428-5.428 5.428-13t-5.428-13z" unicode="&#xf077;"/><glyph d="M480.857 244.572l-212-211.714q-5.428-5.428-12.857-5.428t-12.857 5.428l-212 211.714q-5.428 5.428-5.428 13t5.428 13l47.428 47.143q5.428 5.429 12.857 5.429t12.857-5.428l151.714-151.714 151.714 151.714q5.428 5.428 12.857 5.428t12.857-5.428l47.428-47.143q5.428-5.428 5.428-13t-5.428-13z" unicode="&#xf078;"/><glyph d="M365.714 45.714q0-3.714-2.714-6.428t-6.428-2.714h-274.286q-2.285 0-3.857.572t-2.572 2-1.572 2.286-.857 3.286-.285 3.286v171.429h-54.857q-7.428 0-12.857 5.428t-5.428 12.857q0 6.857 4.285 11.714l91.428 109.714q5.428 6.286 14 6.286t14-6.286l91.429-109.714q4.286-4.857 4.286-11.714 0-7.428-5.428-12.857t-12.857-5.428h-54.857v-109.714h164.572q4.572 0 7.143-3.143l45.714-54.857q2-3.143 2-6zM548.572 164.572q0-6.857-4.285-11.714l-91.428-109.714q-5.714-6.572-14-6.572t-14 6.572l-91.428 109.714q-4.286 4.857-4.286 11.714 0 7.428 5.428 12.857t12.857 5.428h54.857v109.714h-164.571q-4.571 0-7.143 3.428l-45.714 54.857q-2 2.572-2 5.714 0 3.714 2.714 6.428t6.428 2.714h274.286q2.286 0 3.857-.571t2.572-2 1.572-2.286.857-3.286.286-3.286v-171.428h54.857q7.428 0 12.857-5.428t5.428-12.857z" horiz-adv-x="549" unicode="&#xf079;"/><glyph d="M182.857 36.572q0-14.857-10.857-25.714t-25.714-10.857-25.715 10.857-10.857 25.714 10.857 25.714 25.715 10.857 25.714-10.857 10.857-25.714zM438.857 36.572q0-14.857-10.857-25.714t-25.714-10.857-25.714 10.857-10.857 25.714 10.857 25.714 25.714 10.857 25.714-10.857 10.857-25.714zM475.428 347.429v-146.286q0-6.857-4.714-12.143t-11.572-6.143l-298.286-34.857q3.714-17.143 3.714-20 0-4.572-6.857-18.286h262.857q7.428 0 12.857-5.428t5.428-12.857-5.428-12.857-12.857-5.428h-292.572q-7.428 0-12.857 5.428t-5.428 12.857q0 3.143 2.285 9t4.572 10.286 6.143 11.428 4.428 8.428l-50.572 235.143h-58.285q-7.428 0-12.857 5.428t-5.428 12.857 5.428 12.857 12.857 5.428h73.143q4.572 0 8.143-1.857t5.572-4.428 3.715-7 2.285-7.428 1.572-8.429 1.285-7.428h343.143q7.428 0 12.857-5.428t5.428-12.857z" horiz-adv-x="476" unicode="&#xf07a;"/><glyph d="M475.428 301.714v-201.143q0-26.286-18.857-45.143t-45.143-18.857h-347.428q-26.285 0-45.143 18.857t-18.857 45.143v274.286q0 26.286 18.857 45.143t45.143 18.857h91.428q26.286 0 45.143-18.857t18.857-45.143v-9.143h192q26.286 0 45.143-18.857t18.857-45.143z" horiz-adv-x="476" unicode="&#xf07b;"/><glyph d="M536.857 203.429q0-8.857-8.857-18.857l-96-113.143q-12.286-14.572-34.428-24.714t-41-10.143h-310.857q-9.715 0-17.285 3.714t-7.572 12.286q0 8.857 8.857 18.857l96 113.143q12.286 14.572 34.428 24.714t41 10.143h310.857q9.715 0 17.285-3.714t7.572-12.286zM438.857 301.714v-45.714h-237.714q-26.857 0-56.286-13.572t-46.857-34.143l-97.715-114.857q0 1.143-.143 3.572t-.143 3.572v274.286q0 26.286 18.857 45.143t45.143 18.857h91.428q26.285 0 45.143-18.857t18.857-45.143v-9.143h155.429q26.286 0 45.143-18.857t18.857-45.143z" horiz-adv-x="549" unicode="&#xf07c;"/><glyph d="M201.143 384q0-7.429-5.429-12.857t-12.857-5.428h-36.571v-292.572h36.572q7.428 0 12.857-5.428t5.429-12.857-5.428-12.857l-73.143-73.143q-5.428-5.428-12.857-5.428t-12.857 5.428l-73.143 73.143q-5.428 5.428-5.428 12.857t5.428 12.857 12.857 5.428h36.572v292.572h-36.572q-7.428 0-12.857 5.428t-5.428 12.857 5.428 12.857l73.143 73.143q5.428 5.429 12.857 5.429t12.857-5.429l73.143-73.143q5.428-5.428 5.428-12.857z" horiz-adv-x="220" unicode="&#xf07d;"/><glyph d="M512 219.429q0-7.428-5.428-12.857l-73.143-73.143q-5.428-5.428-12.857-5.428t-12.857 5.428-5.428 12.857v36.572h-292.572v-36.572q0-7.428-5.428-12.857t-12.857-5.428-12.857 5.428l-73.143 73.143q-5.428 5.428-5.428 12.857t5.428 12.857l73.143 73.143q5.428 5.429 12.857 5.429t12.857-5.428 5.428-12.857v-36.571h292.572v36.572q0 7.428 5.428 12.857t12.857 5.429 12.857-5.428l73.143-73.143q5.428-5.428 5.428-12.857z" unicode="&#xf07e;"/><glyph d="M182.857 219.429v-146.286h-73.143v146.286h73.143zM292.572 365.714v-292.571h-73.143v292.572h73.143zM585.143 36.572v-36.572h-585.143v438.857h36.572v-402.286h548.572zM402.286 292.572v-219.428h-73.143v219.428h73.143zM512 402.286v-329.143h-73.143v329.143h73.143z" horiz-adv-x="585" unicode="&#xf080;"/><glyph d="M365.714 301.143q-16-7.143-34.572-9.714 19.428 11.428 26.572 33.428-18.572-10.857-38.286-14.572-17.428 18.857-43.714 18.857-24.857 0-42.428-17.571t-17.572-42.428q0-8.286 1.429-13.714-36.857 2-69.143 18.572t-54.857 44.286q-8.285-14.286-8.285-30.286 0-32.572 26-50-13.428.286-28.572 7.428v-.572q0-21.428 14.285-38.143t35.143-20.714q-8.285-2.286-14.572-2.286-3.715 0-11.143 1.143 6-18 21.285-29.714t34.715-12q-33.143-25.714-74.572-25.714-7.428 0-14.285.857 42.285-26.857 92-26.857 32 0 60 10.143t48 27.143 34.428 39.143 21.428 46.286 7 48.143q0 5.143-.286 7.714 18 12.857 30 31.143zM438.857 356.572v-274.286q0-34-24.143-58.143t-58.143-24.143h-274.286q-34 0-58.143 24.143t-24.143 58.143v274.286q0 34 24.143 58.143t58.143 24.143h274.286q34 0 58.143-24.143t24.143-58.143z" unicode="&#xf081;"/><glyph d="M356.572 438.857q34 0 58.143-24.143t24.143-58.143v-274.286q0-34-24.143-58.143t-58.143-24.143h-53.714v170h56.857l8.572 66.286h-65.428v42.286q0 16 6.714 24t26.143 8l34.857.286v59.143q-18 2.572-50.857 2.572-38.857 0-62.143-22.857t-23.286-64.572v-48.857h-57.143v-66.285h57.143v-170h-152q-34 0-58.143 24.143t-24.143 58.143v274.286q0 34 24.143 58.143t58.143 24.143h274.286z" unicode="&#xf082;"/><glyph d="M265.143 237.714q0 4-2.572 6.572t-6.572 2.571q-18.857 0-32.286-13.428t-13.428-32.286q0-4 2.571-6.572t6.571-2.572 6.572 2.572 2.571 6.572q0 11.428 8 19.428t19.429 8q4 0 6.572 2.571t2.572 6.572zM329.143 200.572q0-30.286-21.428-51.714t-51.714-21.428-51.714 21.428-21.428 51.714 21.428 51.714 51.714 21.428 51.714-21.428 21.428-51.714zM36.572 36.572h438.857v36.572h-438.857v-36.572zM365.714 200.572q0 45.428-32.143 77.572t-77.572 32.143-77.572-32.143-32.143-77.572 32.143-77.572 77.572-32.143 77.572 32.143 32.143 77.572zM73.143 384h109.715v36.571h-109.715v-36.571zM36.572 329.143h438.857v73.143h-236.571l-18.285-36.572h-184v-36.571zM512 402.286v-365.714q0-15.143-10.714-25.857t-25.857-10.714h-438.857q-15.143 0-25.857 10.714t-10.714 25.857v365.714q0 15.143 10.714 25.857t25.857 10.714h438.857q15.143 0 25.857-10.714t10.714-25.857z" unicode="&#xf083;"/><glyph d="M237.714 329.143q0 22.857-16 38.857t-38.857 16-38.857-16-16-38.857q0-12 5.428-23.714-11.715 5.428-23.715 5.428-22.857 0-38.857-16t-16-38.857 16-38.857 38.857-16 38.857 16 16 38.857q0 12-5.428 23.715 11.714-5.428 23.714-5.428 22.857 0 38.857 16t16 38.857zM480.857 128q0-4.857-14-18.857t-18.857-14q-2.572 0-8.143 4.572t-10.428 9.428-11 11.428-7 7.428l-27.428-27.428 62.857-62.857q8-8 8-19.428 0-12-11.143-23.143t-23.143-11.143q-11.428 0-19.428 8l-191.714 191.714q-50.286-37.428-104.285-37.428-46.572 0-75.857 29.286t-29.285 75.857q0 45.715 27.143 89.429t70.857 70.857 89.428 27.143q46.572 0 75.857-29.286t29.286-75.857q0-54-37.428-104.286l101.428-101.428 27.428 27.428q-.857.857-7.428 7t-11.428 11-9.428 10.428-4.572 8.143q0 4.857 14 18.857t18.857 14q3.714 0 6.572-2.857 1.714-1.714 13.143-12.714t23.428-22.714 24.714-24.572 20.857-22.286 8.143-11.714z" unicode="&#xf084;"/><glyph d="M256 219.429q0 30.286-21.428 51.714t-51.714 21.428-51.714-21.428-21.428-51.714 21.428-51.714 51.714-21.428 51.714 21.428 21.428 51.714zM475.428 73.143q0 14.857-10.857 25.714t-25.714 10.857-25.714-10.857-10.857-25.714q0-15.143 10.714-25.857t25.857-10.714 25.857 10.714 10.714 25.857zM475.428 365.714q0 14.857-10.857 25.715t-25.714 10.857-25.714-10.857-10.857-25.715q0-15.143 10.714-25.857t25.857-10.714 25.857 10.714 10.714 25.857zM365.714 245.429v-52.857q0-2.857-2-5.572t-4.572-3l-44.286-6.857q-3.143-10-9.143-21.714 9.714-13.714 25.714-32.857 2-2.857 2-5.714 0-3.428-2-5.428-6.572-8.572-23.572-25.572t-22.428-17q-3.143 0-6 2l-32.857 25.714q-10.571-5.428-22-8.857-3.143-30.857-6.571-44.286-2-6.857-8.572-6.857h-53.143q-3.143 0-5.714 2.143t-2.857 5l-6.572 43.714q-9.714 2.857-21.428 8.857l-33.715-25.428q-2-2-5.715-2-3.143 0-6 2.286-41.143 38-41.143 45.714 0 2.572 2 5.428 2.857 4 11.715 15.143t13.428 17.428q-6.572 12.572-10 23.428l-43.428 6.857q-2.857.286-4.857 2.714t-2 5.572v52.857q0 2.857 2 5.572t4.572 3l44.285 6.857q3.143 10 9.143 21.715-9.715 13.714-25.715 32.857-2 3.143-2 5.714 0 3.429 2 5.714 6.285 8.572 23.428 25.428t22.572 16.857q3.143 0 6-2l32.857-25.714q9.715 5.143 22 9.143 3.143 30.857 6.572 44 2 6.857 8.572 6.857h53.143q3.143 0 5.714-2.143t2.857-5l6.572-43.714q9.714-2.857 21.428-8.857l33.714 25.428q2.286 2 5.714 2 3.143 0 6-2.286 41.143-38 41.143-45.714 0-2.572-2-5.428-3.428-4.572-12-15.428t-12.857-17.143q6.572-13.714 9.714-23.428l43.428-6.572q2.857-.572 4.857-3t2-5.572zM548.572 93.143v-40q0-4.572-42.572-8.857-3.428-7.714-8.572-14.857 14.572-32.286 14.572-39.428 0-1.143-1.143-2-34.857-20.286-35.428-20.286-2.286 0-13.143 13.429t-14.857 19.428q-5.714-.572-8.572-.572t-8.572.572q-4-6-14.857-19.428t-13.143-13.429q-.572 0-35.428 20.286-1.143.857-1.143 2 0 7.143 14.572 39.428-5.143 7.143-8.572 14.857-42.572 4.286-42.572 8.857v40q0 4.572 42.572 8.857 3.714 8.286 8.572 14.857-14.572 32.286-14.572 39.428 0 1.143 1.143 2 1.143.572 10 5.714t16.857 9.714 8.572 4.572q2.286 0 13.143-13.286t14.857-19.286q5.714.572 8.572.572t8.572-.572q14.572 20.286 26.286 32l1.714.572q1.143 0 35.428-20 1.143-.857 1.143-2 0-7.143-14.572-39.428 4.857-6.572 8.572-14.857 42.572-4.286 42.572-8.857zM548.572 385.714v-40q0-4.572-42.572-8.857-3.428-7.714-8.572-14.857 14.572-32.286 14.572-39.428 0-1.143-1.143-2-34.857-20.286-35.428-20.286-2.286 0-13.143 13.428t-14.857 19.428q-5.714-.572-8.572-.572t-8.572.572q-4-6-14.857-19.428t-13.143-13.428q-.572 0-35.428 20.286-1.143.857-1.143 2 0 7.143 14.572 39.428-5.143 7.143-8.572 14.857-42.572 4.286-42.572 8.857v40q0 4.571 42.572 8.857 3.714 8.286 8.572 14.857-14.572 32.285-14.572 39.428 0 1.143 1.143 2 1.143.572 10 5.714t16.857 9.714 8.572 4.572q2.286 0 13.143-13.286t14.857-19.285q5.714.571 8.572.571t8.572-.571q14.572 20.286 26.286 32l1.714.571q1.143 0 35.428-20 1.143-.857 1.143-2 0-7.143-14.572-39.428 4.857-6.572 8.572-14.857 42.572-4.286 42.572-8.857z" horiz-adv-x="549" unicode="&#xf085;"/><glyph d="M402.286 256q0-39.714-26.857-73.428t-73.286-53.286-101-19.572q-24.572 0-50.286 4.572-35.428-25.143-79.428-36.572-10.285-2.572-24.572-4.572h-.857q-3.143 0-5.857 2.286t-3.285 6q-.285.857-.285 1.857t.143 1.857.572 1.714l.715 1.428t1 1.572 1.143 1.428 1.285 1.428 1.143 1.286q1.428 1.714 6.572 7.143t7.428 8.428 6.428 8.286 7.143 11 5.857 12.572q-35.428 20.572-55.715 50.572t-20.285 64q0 39.714 26.857 73.428t73.285 53.286 101 19.571 101-19.571 73.286-53.286 26.857-73.428zM512 182.857q0-34.286-20.286-64.143t-55.714-50.428q2.857-6.857 5.857-12.572t7.143-11 6.428-8.286 7.428-8.428 6.572-7.143q.286-.286 1.143-1.286t1.286-1.428 1.143-1.428 1-1.572l.714-1.428t.572-1.714.143-1.857-.286-1.857q-.857-4-3.714-6.286t-6.286-2q-14.286 2-24.572 4.572-44 11.428-79.428 36.572-25.714-4.572-50.286-4.572-77.428 0-134.857 37.714 16.571-1.143 25.143-1.143 46 0 88.286 12.857t75.428 36.857q35.714 26.286 54.857 60.572t19.143 72.572q0 22-6.572 43.428 36.857-20.286 58.286-50.857t21.429-65.714z" unicode="&#xf086;"/><glyph d="M73.143 91.429q0 7.428-5.428 12.857t-12.857 5.428-12.857-5.428-5.428-12.857 5.428-12.857 12.857-5.428 12.857 5.428 5.428 12.857zM402.286 256q0 14.572-11.143 25.572t-25.428 11h-100.572q0 16.572 13.714 45.572t13.714 45.857q0 28-9.143 41.429t-36.572 13.428q-7.428-7.428-10.857-24.286t-8.714-35.857-17-31.285q-6.286-6.572-22-26-1.143-1.429-6.571-8.572t-9-11.714-9.857-12.143-11.429-12.571-11-10.143-11.428-7.714-10.143-2.571h-9.143v-182.857h9.143q3.715 0 9-.857t9.429-1.857 10.857-3.143 10-3.286 10.143-3.572 8.286-3q60.286-20.857 97.714-20.857h34.572q54.857 0 54.857 47.714 0 7.428-1.428 16 8.572 4.572 13.572 15t5 21-5.143 19.714q15.143 14.286 15.143 34 0 7.143-2.857 15.857t-7.143 13.572q9.143.286 15.286 13.428t6.143 23.143zM438.857 256.286q0-25.428-14-46.571 2.572-9.428 2.572-19.714 0-22-10.857-41.143.857-6 .857-12.286 0-28.857-17.143-50.857.286-39.714-24.286-62.714t-64.857-23h-36.857q-27.428 0-54.143 6.428t-61.857 18.714q-33.143 11.428-39.428 11.428h-82.285q-15.143 0-25.857 10.714t-10.714 25.857v182.857q0 15.143 10.714 25.857t25.857 10.714h78.285q10.285 6.857 39.143 44.286 16.572 21.428 30.572 36.571 6.857 7.143 10.143 24.429t8.714 36.143 17.715 30.857q11.143 10.571 25.714 10.571 24 0 43.143-9.285t29.143-29 10-53.143q0-26.572-13.714-54.857h50.286q29.714 0 51.428-21.714t21.714-51.143z" unicode="&#xf087;"/><glyph d="M73.143 347.429q0 7.428-5.428 12.857t-12.857 5.428-12.857-5.428-5.428-12.857 5.428-12.857 12.857-5.428 12.857 5.428 5.428 12.857zM402.286 182.857q0 10-6.143 23.143t-15.286 13.428q4.286 4.857 7.143 13.572t2.857 15.857q0 19.715-15.143 34 5.143 9.143 5.143 19.715t-5 21-13.572 15q1.428 8.572 1.428 16 0 24.285-14 36t-38.857 11.714h-36.572q-37.428 0-97.714-20.857-1.429-.571-8.286-3t-10.143-3.571-10-3.286-10.857-3.143-9.428-1.857-9-.857h-9.143v-182.857h9.143q4.572 0 10.143-2.572t11.428-7.714 11-10.143 11.428-12.572 9.857-12.143 9-11.714 6.571-8.572q15.714-19.428 22-26 11.714-12.286 17-31.286t8.714-35.857 10.857-24.286q27.429 0 36.571 13.428t9.143 41.428q0 16.857-13.714 45.857t-13.714 45.572h100.572q14.286 0 25.428 11t11.143 25.572zM438.857 182.572q0-29.428-21.714-51.143t-51.428-21.714h-50.286q13.714-28.286 13.714-54.857 0-33.714-10-53.143-10-19.714-29.143-29t-43.143-9.285q-14.571 0-25.715 10.572-9.714 9.428-15.428 23.428t-7.286 25.857-5 24.143-8.857 18.286q-13.714 14.286-30.571 36.286-28.857 37.428-39.143 44.286h-78.285q-15.143 0-25.857 10.714t-10.714 25.857v182.857q0 15.143 10.714 25.857t25.857 10.714h82.285q6.285 0 39.429 11.428 36.572 12.572 63.714 18.857t57.143 6.286h32q40 0 64.714-22.572t24.428-61.715v-1.428q17.143-22 17.143-50.857 0-6.286-.857-12.286 10.857-19.143 10.857-41.143 0-10.286-2.572-19.714 14-21.143 14-46.572z" unicode="&#xf088;"/><glyph d="M237.714 466.286v-382.572l-128.286-67.428q-6.285-3.428-11.428-3.428-6 0-9 4.143t-3 10.143q0 1.714.572 5.714l24.572 142.857-104 101.143q-7.143 7.714-7.143 13.714 0 10.572 16 13.143l143.428 20.857 64.286 130q5.428 11.714 14 11.714z" horiz-adv-x="256" unicode="&#xf089;"/><glyph d="M475.428 305.143q0 23.143-6.143 40.857t-15.714 28.143-23.286 17-26.857 8.857-28 2.286-32-7.286-31.572-18.286-24.714-20.571-17.143-17.572q-5.143-6.286-14-6.286t-14 6.286q-6.857 8-17.143 17.571t-24.715 20.572-31.572 18.286-32 7.286-28-2.286-26.857-8.857-23.285-17-15.715-28.143-6.143-40.857q0-48 53.428-101.428l166-160 165.714 159.714q53.714 53.714 53.714 101.714zM512 305.143q0-63.143-65.428-128.571l-178-171.428q-5.143-5.143-12.572-5.143t-12.572 5.143l-178.286 172q-2.857 2.286-7.857 7.428t-15.857 18.714-19.428 27.857-15.286 34.572-6.715 39.428q0 62.857 36.285 98.286t100.285 35.428q17.714 0 36.143-6.143t34.285-16.572 27.286-19.571 21.714-19.429q10.286 10.286 21.714 19.429t27.286 19.571 34.286 16.572 36.143 6.143q64 0 100.286-35.428t36.286-98.286z" unicode="&#xf08a;"/><glyph d="M182.857 64q0-1.143.286-5.714t.143-7.572-.857-6.714-2.857-5.572-5.857-1.857h-91.428q-34 0-58.143 24.143t-24.143 58.143v201.143q0 34 24.143 58.143t58.143 24.143h91.428q3.714 0 6.429-2.714t2.714-6.428q0-1.143.286-5.714t.143-7.572-.857-6.715-2.857-5.571-5.857-1.857h-91.428q-18.857 0-32.285-13.428t-13.428-32.286v-201.143q0-18.857 13.428-32.286t32.285-13.428h89.143t3.286-.286 3.286-.857 2.286-1.572 2-2.572.571-3.857zM448 219.429q0-7.428-5.428-12.857l-155.428-155.428q-5.428-5.428-12.857-5.428t-12.857 5.428-5.428 12.857v82.286h-128q-7.428 0-12.857 5.428t-5.428 12.857v109.714q0 7.428 5.428 12.857t12.857 5.429h128v82.285q0 7.429 5.428 12.857t12.857 5.428 12.857-5.428l155.428-155.428q5.428-5.428 5.428-12.857z" horiz-adv-x="476" unicode="&#xf08b;"/><glyph d="M67.715 71.429h66v198.286h-66v-198.286zM138 330.857q-.286 14.857-10.285 24.572t-26.572 9.714-27-9.714-10.428-24.572q0-14.571 10.143-24.428t26.428-9.857h.285q16.857 0 27.143 9.857t10.285 24.428zM305.143 71.429h66v113.714q0 44-20.857 66.572t-55.143 22.572q-38.857 0-59.714-33.428h.571v28.857h-66q.857-18.857 0-198.286h66v110.857q0 10.857 2 16 4.286 10 12.857 17t21.143 7q33.143 0 33.143-44.857v-106zM438.857 356.572v-274.286q0-34-24.143-58.143t-58.143-24.143h-274.286q-34 0-58.143 24.143t-24.143 58.143v274.286q0 34 24.143 58.143t58.143 24.143h274.286q34 0 58.143-24.143t24.143-58.143z" unicode="&#xf08c;"/><glyph d="M137.143 228.572v128q0 4-2.571 6.572t-6.572 2.572-6.572-2.572-2.572-6.572v-128q0-4 2.572-6.571t6.572-2.572 6.572 2.572 2.571 6.572zM329.143 128q0-7.428-5.428-12.857t-12.857-5.428h-122.572l-14.572-138q-.571-3.428-3-5.857t-5.857-2.428h-.286q-7.714 0-9.143 7.715l-21.714 138.572h-115.428q-7.428 0-12.857 5.428t-5.428 12.857q0 35.143 22.428 63.286t50.715 28.143v146.286q-14.857 0-25.715 10.857t-10.857 25.714 10.857 25.714 25.715 10.857h182.857q14.857 0 25.714-10.857t10.857-25.714-10.857-25.714-25.714-10.857v-146.286q28.286 0 50.714-28.143t22.428-63.286z" horiz-adv-x="329" unicode="&#xf08d;"/><glyph d="M402.286 210.286v-91.428q0-34-24.143-58.143t-58.143-24.143h-237.714q-34 0-58.143 24.143t-24.143 58.143v237.714q0 34 24.143 58.143t58.143 24.143h201.143q4 0 6.572-2.572t2.572-6.572v-18.285q0-4-2.572-6.572t-6.572-2.572h-201.143q-18.857 0-32.285-13.428t-13.428-32.286v-237.714q0-18.857 13.428-32.286t32.285-13.428h237.715q18.857 0 32.286 13.428t13.428 32.286v91.428q0 4 2.572 6.572t6.572 2.571h18.286q4 0 6.572-2.571t2.572-6.572zM512 457.143v-146.286q0-7.428-5.428-12.857t-12.857-5.428-12.857 5.428l-50.286 50.286-186.286-186.286q-2.857-2.857-6.572-2.857t-6.572 2.857l-32.572 32.572q-2.857 2.857-2.857 6.572t2.857 6.572l186.286 186.286-50.286 50.285q-5.428 5.429-5.428 12.857t5.428 12.857 12.857 5.428h146.286q7.428 0 12.857-5.428t5.428-12.857z" unicode="&#xf08e;"/><glyph d="M338.286 219.429q0-7.428-5.428-12.857l-155.429-155.428q-5.429-5.428-12.857-5.428t-12.857 5.428-5.429 12.857v82.286h-128q-7.428 0-12.857 5.428t-5.428 12.857v109.714q0 7.428 5.428 12.857t12.857 5.429h128v82.285q0 7.429 5.428 12.857t12.857 5.428 12.857-5.428l155.428-155.428q5.428-5.428 5.428-12.857zM438.857 320v-201.143q0-34-24.143-58.143t-58.143-24.143h-91.428q-3.714 0-6.428 2.714t-2.714 6.428q0 1.143-.286 5.714t-.143 7.572.857 6.714 2.857 5.572 5.857 1.857h91.428q18.857 0 32.286 13.428t13.428 32.286v201.143q0 18.857-13.428 32.286t-32.286 13.428h-89.143t-3.286.286-3.286.857-2.286 1.572-2 2.572-.571 3.857q0 1.143-.286 5.715t-.143 7.572.857 6.714 2.857 5.571 5.857 1.857h91.428q34 0 58.143-24.143t24.143-58.143z" unicode="&#xf090;"/><glyph d="M130.857 223.143q-21.143 46.286-21.143 106h-73.143v-27.428q0-22.286 27-46.286t67.285-32.286zM438.857 301.714v27.428h-73.143q0-59.714-21.143-106 40.286 8.286 67.286 32.286t27 46.286zM475.428 338.286v-36.571q0-20.286-11.857-40.857t-32-37.143-49.428-27.857-61.572-12.714q-12-15.428-27.143-27.143-10.857-9.714-15-20.714t-4.143-25.572q0-15.428 8.714-26t27.857-10.572q21.428 0 38.143-13t16.714-32.714v-18.286q0-4-2.572-6.572t-6.572-2.572h-237.714q-4 0-6.572 2.572t-2.572 6.572v18.286q0 19.714 16.715 32.714t38.143 13q19.143 0 27.857 10.572t8.714 26q0 14.572-4.143 25.572t-15 20.714q-15.143 11.714-27.143 27.143-32.285 1.428-61.572 12.714t-49.428 27.857-32 37.143-11.857 40.857v36.572q0 11.428 8 19.428t19.428 8h82.285v27.428q0 18.857 13.428 32.286t32.285 13.428h164.571q18.857 0 32.286-13.428t13.428-32.286v-27.428h82.286q11.428 0 19.428-8t8-19.428z" horiz-adv-x="476" unicode="&#xf091;"/></font>
</defs>
</svg>
